Лунная маска: Смертельная дуэль в глубоких водах / Moonlight Mask - Duel to the Death in Dangerous Waters / Gekko kamen - Zekkai no shito / 月光仮面 絶海の死斗 [1958, Япония, фантастика, DVDRip] (СТ: Mr.Faer [Olskan]) (Sub Rus)

Reply to topic
DL-List and Torrent activity
Size:  804 MB   |    Registered:  3 months 10 days   |    Completed:  1 time

Seeders:

Username ULR UL DL UL speed DL speed
moNTer 0 0- 0- 0- 0-
pompilius 0 0- 0- 0- 0-
shows data only for the current session
 
   
 
 
 
Author Message

Faer ®

Gender: Male

Longevity: 6 years 6 months

Posts: 648

Post 26-Mar-2021 02:27

[Quote]

Лунная маска: Смертельная дуэль в глубоких водах / Moonlight Mask - Duel to the Death in Dangerous Waters / Gekko kamen - Zekkai no shito / 月光仮面 絶海の死斗
Страна: Япония
Жанр: фантастика
Год выпуска: 1958
Перевод 1: Субтитры Mr.Faer [Olskan]
Cубтитры: русские
Описание: Продолжение первого фильма.
Качество видео: DVDRip
Формат видео: MKV
Видео: AVC, 720*480, 16:9, 23.976fps, 1922 Кбит/с
Аудио 1: MPEG3, 44.1КгЦ, 256 Кбит/с, стерео
Формат субтитров: softsub (SSA/ASS)

Работа над релизом:
DVD найден на tokusatsus.com.br
Рип с DVD: Mr.Faer
Ансаб предоставлен Kingmenu
Перевод: Mr.Faer
Консультация и помощь с хардсабом: Uboaface

MediaInfo

Общее
Уникальный идентификатор : 209309805865723949360364325111091991443 (0x9D779A2ED474D76DE60E648EA4249393)
Полное имя : E:\Gekko Kamen - movie 2.mkv
Формат : Matroska
Версия формата : Version 4
Размер файла : 804 Мбайт
Продолжительность : 51 м. 28 с.
Общий поток : 2 184 Кбит/сек
Название фильма : 「月光仮面」劇場版シリーズ 2. 月光仮面 絶海の死斗
Дата кодирования : UTC 2021-04-22 15:38:57
Программа кодирования : mkvmerge v46.0.0 ('No Deeper Escape') 64-bit
Библиотека кодирования : libebml v1.3.10 + libmatroska v1.5.2
Видео
Идентификатор : 1
Формат : AVC
Формат/Информация : Advanced Video Codec
Профиль формата : High@L3
Настройки формата : CABAC / 3 Ref Frames
Параметр CABAC формата : Да
Параметр RefFrames формата : 3 кадра
Идентификатор кодека : V_MPEG4/ISO/AVC
Продолжительность : 51 м. 27 с.
Битрейт : 1 922 Кбит/сек
Ширина : 720 пикселей
Высота : 480 пикселей
Соотношение сторон : 16:9
Соотношение сторон в оригинале : 16:9
Режим частоты кадров : Переменный
Частота кадров : 23,976 кадра/сек
Цветовое пространство : YUV
Субдискретизация насыщенности : 4:2:0
Битовая глубина : 8 бит
Тип развёртки : Прогрессивная
Бит/(Пиксели*Кадры) : 0.232
Размер потока : 709 Мбайт (88%)
Библиотека кодирования : x264 core 148 r2643 5c65704
Настройки программы : cabac=1 / ref=3 / deblock=1:0:0 / analyse=0x3:0x113 / me=hex / subme=7 / psy=1 / psy_rd=1.00:0.00 / mixed_ref=1 / me_range=16 / chroma_me=0 / trellis=1 / 8x8dct=1 / cqm=0 / deadzone=21,11 / fast_pskip=1 / chroma_qp_offset=-2 / threads=9 / lookahead_threads=1 / sliced_threads=0 / nr=0 / decimate=1 / interlaced=0 / bluray_compat=0 / constrained_intra=0 / bframes=3 / b_pyramid=0 / b_adapt=1 / b_bias=0 / direct=1 / weightb=1 / open_gop=0 / weightp=2 / keyint=250 / keyint_min=25 / scenecut=40 / intra_refresh=0 / rc_lookahead=40 / rc=abr / mbtree=1 / bitrate=1922 / ratetol=1.0 / qcomp=0.60 / qpmin=10 / qpmax=51 / qpstep=4 / ip_ratio=1.41 / aq=1:1.00
Default : Да
Forced : Нет
Аудио
Идентификатор : 2
Формат : MPEG Audio
Версия формата : Version 1
Профиль формата : Layer 3
Настройки формата : Joint stereo / MS Stereo
Идентификатор кодека : A_MPEG/L3
Идентификатор кодека/Подсказка : MP3
Продолжительность : 51 м. 27 с.
Вид битрейта : Постоянный
Битрейт : 256 Кбит/сек
Каналы : 2 канала
Частота : 44,1 КГц
Частота кадров : 38,281 кадров/сек (1152 SPF)
Метод сжатия : С потерями
Размер потока : 94,2 Мбайт (12%)
Библиотека кодирования : LAME3.99.5ªªª
Default : Да
Forced : Нет
Текст
Идентификатор : 3
Формат : ASS
Идентификатор кодека : S_TEXT/ASS
Идентификатор кодека/Информация : Advanced Sub Station Alpha
Продолжительность : 51 м. 23 с.
Битрейт : 87 бит/сек
Count of elements : 529
Метод сжатия : Без потерь
Размер потока : 33,0 Кбайт (0%)
Заголовок : Olskan
Язык : Russian
Default : Да
Forced : Нет

Скриншоты




cd Рип дополнительно залит на mail.ru cd2
Gekko Kamen - movie 2.mkv.torrent
 GOLD TORRENT! DOWNLOAD TRAFFIC DOES NOT CONSIDER! 
Torrent: Registered [ 2021-04-22 18:48 ]

Download .torrent

Download

32 KB

Status: checked
Completed: 1 times
Size: 804 MB
 


Last edited by Faer on 2021-04-22 19:10; edited 7 times in total
[Profile] [PM]

Faer ®

Gender: Male

Longevity: 6 years 6 months

Posts: 648

Post 26-Mar-2021 03:00 (after 32 minutes)

[Quote]

В отличии от оригинала (откуда были взяты субтитры), тут нет минутной сцены-рекламы после фильма, в которой информируется о том, что 1 и 2 фильмы уже в киинотеатрах.
[Profile] [PM]

Faer ®

Gender: Male

Longevity: 6 years 6 months

Posts: 648

Post 31-Mar-2021 14:24 (after 5 days)

[Quote]

Заменил аудиодорожку, перекачайте пожалуйста файл.
[Profile] [PM]

Faer ®

Gender: Male

Longevity: 6 years 6 months

Posts: 648

Post 22-Apr-2021 18:48 (after 22 days)

[Quote]

Заменено видео:
AVC, 704*296, 2.40:1, 23.976fps, 526 Кбит/с
->
AVC, 720*480, 16:9, 23.976fps, 1922 Кбит/с
Образ DVD предоставлен
[Profile] [PM]
Display posts:    
Reply to topic

Current time is: 03-Aug 17:29

All times are UTC + 3



You can post new topics in this forum
You cannot reply to topics in this forum
You cannot edit your posts in this forum
You cannot delete your posts in this forum
You cannot vote in polls in this forum
You cannot attach files in this forum
You can download files in this forum