Машинный мозг / The Brain Machine (Джой Н. Хоук) [1972, США, фантастика, DVDRip] (СТ: Uboaface, Mr.Faer [Olskan]) (Sub Rus)

Reply to topic
 
Author Message

Faer ®

Gender: Male

Longevity: 6 years 3 months

Posts: 571

Post 13-Mar-2021 11:25

[Quote]

Машинный мозг / The Brain Machine
Страна: США
Жанр: фантастика
Год выпуска: 1972
Продолжительность: 01:20:26
Перевод: Субтитры Uboaface, Mr.Faer [Olskan]
Cубтитры: русские
Режиссер: Джой Н. Хоук
В ролях: Джеймс Бест, Барбара Бёрджесс, Джил Петерсон, Джералд МакРэйни, Marcus J. Grapes, Даг Коллинз, Энн Лэтэм, Томас Хэл Филлипс, Кристиан Гаррисон, Стокер Фонтелье
Описание: Несколько человек добровольно участвуют в научном эксперименте по чтению мыслей и памяти, но всё оборачивается кошмаром для людей...


Работа над релизом:
Перевод: Uboaface, Mr.Faer [Olskan]
Спонсоры перевода: Firka, CROM@G, Pompilius, zenya_1985, archestrategos, Starlay

Качество видео: DVDRip
Формат видео: MKV
Видео: AVC, 640*480, 5:3, 29.97fps, 1997 Кбит/с
Аудио: AC3, 48кГц, 192 Кбит/с, стерео (английский)
Формат субтитров: softsub (SSA/ASS)

MediaInfo

Общее
Уникальный идентификатор : 47734196879968527359279133098146724669 (0x23E9459C2BF3305CADD733F650B2FB3D)
Полное имя : F:\Архив\Мои переводы\The Brain Machine.mkv
Формат : Matroska
Версия формата : Version 4
Размер файла : 1,23 Гбайт
Продолжительность : 1 ч. 20 м.
Режим общего битрейта : Переменный
Общий поток : 2 191 Кбит/сек
Название фильма : The Brain Machine 1977.WEBRip
Дата кодирования : UTC 2021-03-10 23:38:34
Программа кодирования : mkvmerge v46.0.0 ('No Deeper Escape') 64-bit
Библиотека кодирования : libebml v1.3.10 + libmatroska v1.5.2
Видео
Идентификатор : 1
Формат : AVC
Формат/Информация : Advanced Video Codec
Профиль формата : Main@L3
Настройки формата : CABAC / 4 Ref Frames
Параметр CABAC формата : Да
Параметр RefFrames формата : 4 кадра
Идентификатор кодека : V_MPEG4/ISO/AVC
Продолжительность : 1 ч. 20 м.
Вид битрейта : Переменный
Битрейт : 1 997 Кбит/сек
Максимальный битрейт : 4 000 Кбит/сек
Ширина : 640 пикселей
Высота : 480 пикселей
Соотношение сторон : 4:3
Режим частоты кадров : Постоянный
Частота кадров : 29,970 (30000/1001) кадров/сек
Цветовое пространство : YUV
Субдискретизация насыщенности : 4:2:0
Битовая глубина : 8 бит
Тип развёртки : Прогрессивная
Бит/(Пиксели*Кадры) : 0.217
Размер потока : 1,12 Гбайт (91%)
Default : Да
Forced : Нет
Цветовой диапазон : Limited
Аудио
Идентификатор : 2
Формат : AC-3
Формат/Информация : Audio Coding 3
Коммерческое название : Dolby Digital
Идентификатор кодека : A_AC3
Продолжительность : 1 ч. 20 м.
Вид битрейта : Постоянный
Битрейт : 192 Кбит/сек
Каналы : 2 канала
Channel layout : L R
Частота : 48,0 КГц
Частота кадров : 31,250 кадров/сек (1536 SPF)
Метод сжатия : С потерями
Задержка видео : -1 мс.
Размер потока : 110 Мбайт (9%)
Язык : English
Service kind : Complete Main
Default : Да
Forced : Нет
Текст
Идентификатор : 3
Формат : UTF-8
Идентификатор кодека : S_TEXT/UTF8
Идентификатор кодека/Информация : UTF-8 Plain Text
Продолжительность : 1 ч. 18 м.
Битрейт : 96 бит/сек
Count of elements : 1059
Размер потока : 55,4 Кбайт (0%)
Заголовок : Olskan
Язык : Russian
Default : Да
Forced : Нет

Скриншоты





[Profile] [PM]

Faer ®

Gender: Male

Longevity: 6 years 3 months

Posts: 571

Post 14-Mar-2021 11:06 (after 23 hours)

[Quote]

Кто посмотрел и всё понял - мои поздравления.
Спойлер объясняющий сюжет для тех, кто посмотрел и не понял.
Суть эксперимента в интеграции сознания нескольких людей и перекачки их жизненного опыта в одну машину.
А все эти воспоминания - это то, что их начало долбить по мозгам, так как машина пыталась воспроизвести это в реальности, но это был слишком болезненный для испытуемых опыт.
(с) Uboaface
[Profile] [PM]
Display posts:    
Reply to topic

Current time is: 12-Apr 03:27

All times are UTC + 3



You cannot post new topics in this forum
You cannot reply to topics in this forum
You cannot edit your posts in this forum
You cannot delete your posts in this forum
You cannot vote in polls in this forum
You cannot attach files in this forum
You cannot download files in this forum