Вечный рыцарь / Рыцарь навсегда / Forever Knight / Сезон 2: Серии: 1-2 из 26 (Barney Cohen, James D. Parriott) [1994-1995, США, триллер, драма, ужасы, фантастика, DVDRemux] АО (Horror Maker) + Original Eng

Reply to topic
 
Author Message

Darth_47 ®

Gender: Male

Longevity: 1 year 11 months

Posts: 847

Post 10-Mar-2021 18:10

[Quote]

Вечный рыцарь / Рыцарь навсегда / Forever Knight- Страна: США
Жанр: триллер, драма, ужасы, фантастика
Год выпуска: 1994-1995
Продолжительность: 26 серий по ~45 минут-Перевод: Авторский (одноголосый закадровый) (Horror Maker)
Субтитры: английские-Режиссер: Barney Cohen, James D. Parriott-В ролях: Geraint Wyn Davies, Catherine Disher, Nigel Bennett и др.-Описание: Вампиры… Ночные кровавые оргии, смерть, смерть, одна только смерть… Но есть один вампир, который сумел разорвать этот бессмысленный, опустошительный круг, сумел найти оправдание своему существованию, и приблизиться к мечте о смерти. Все вокруг удивляются, с каким бесстрашием детектив из отдела убийств бросается в самые кровавые схватки, и выходит из них невредимым. Когда-то его звали Николас Брабанте, и он был вампиром 800 лет, а теперь он Ник Найт, и служит детективом отдела убийств в Торонто. Многие столетия он мечтал о смерти, искал ее, и теперь, расследуя жестокие преступления, он вступает в борьбу с самыми разными негодяями, не задумываясь об исходе или поражении. Его друг, следователь-коронер и врач, Натали Ламберт, готовит для него особые, чесночные таблетки, которые позволяют ему переносить солнечный свет. Хотя с его работой он чаще действует под покровом ночи. Благодаря терапии, Николас, хоть и не переносит распятия, но при прикосновении к нему его тело уже не горит адским пламенем, а только получает ожог. И хотя ему по-прежнему плохо в церкви, по долгу службы он заходит туда.
Сериал снимался с 1989 по 1996 год. 3 сезона, всего 70 эпизодов. Forever Knight - идейный прародитель сериалов "Ангел" и "В лунном свете". Очень высокохудожественная картина с прекрасной режиссурой и, к сожалению, совершенно не известная у нас. В США по популярности сериал не уступал "Горцу".
- -Релиз

Работа над релизом:
Видеоряд скачан с tv-vault.me
Авторский перевод - Horror Maker
Сведение звука и сборка релиза: Darth_47
Спонсоры перевода - Darth_47
-

Список серий

01. Killer Instinct (Инстинкт убийцы)
02. A Fate Worse Than Death (Судьба хуже смерти)

Рецензия Edvissium с Кинопоиска

Нет слов — одни положительные эмоции…
Поскольку не являюсь большим экспертом в 'вампирических' фильмах, то, наверное, моя рецензия не будет полностью объективной. Впрочем, решать вам.
Сериал этот в наших широтах малоизвестен, поэтому вышла на след 'Вечного рыцаря' благодаря просмотру впоследствии полюбившегося мне 'Гиперкуба' (да и вообще, симпатии к канадской кинопродукции и к Геренту Вин Дэвису в частности).
Именно интерес к этому весьма своебразному актёру (привлекательному мужчине и хорошему человеку) стал сильным толчком к просмотру, затмив мой скептицизм относительно 'вампиризма'. (Ну не фанат я подобного, тем более тема испошлённая и заезженная!)
Однако просмотр сериала приятно меня порадовал. По многим причинам:
1) Сам сериал - в первую очередь добротный, увлекательный детектив, способный заинтриговать зрителя. К тому же благодаря формату ситкома ненавязчив и лёгок, в противовес всяческим 'санта-барбарам'.
2) Мистическая атмосфера, несмотря на малобюджетность, подана 'вкусно', с любимым мною элитарным духом западноевропейской готической культуры. В свою очередь дух мистический удачно оттеняется духом урбанистическим, несколько схожим с настроениями суперблокбастера 'Бегущий по лезвию' (отмечу сразу их визуально-сюжетное сходство). Канадцы не отстранялись от родных мест, а выгодно их представили, посему возникло желание побывать в Торонто.
3) При этом 'Рыцарь' лишён излишнего пафоса (как и канадское кино в целом, за что его и люблю). В сериале присутствует некая душевность, искренность, непринужденность. Все герои представлены в первую очередь живыми людьми, со своими печалями, слабостями, неважно, 800-летний вампир это, девушка или убийца. В изображении актёрами героев сохранена та любимая мною умеренность, которую некоторые склонны принимать за 'плохую игру', когда герой не ломает излишних драм и умеет жить обыденной жизнью. Да и в целом сериал не лишён юмора, улыбки, остроумия.
4) Пусть и не всеми любимый, но интересный мне образ 'доброго вампира'. Подкупает, не спорю, ибо наскучил бесконечный ряд киномерзавцев и циников. Наивно, да. Но поднимает настроение и вдохновляет. Как и весь сериал, который в целом нравоучителен, но при этом сострадателен к человеку.
5) 'Старая гвардия' полюбившихся мне канадских актеров, знакомых по трилогии 'Куб' да и другим фильмам В. Натали.
6) Сам по себе подбор актеров удачен: и люди симпачные, и в свои роли отлично вписались.
7) В завершение отмечу как достоинство то, что другие могут считать недостатком - 'моральная устарелость' сериала. Да, не все так прилизано компьютером, как в привычном современным зрителям новом кино. Однако мне приятно было погружаться в атмосферу начала 90-х, с их вареной джинсой, прическами с 'химией', примитивными ПК да техно, в которые мне довелось родиться, но которых уже не вернуть. Так что для ностальгируюющих - самое то.
Вместо выводов - выскажу благодарность создателям и Г. В. Дэвису за положительные эмоции и приятно проведённый досуг.

В целом, от меня, с учетом всех нюансов, как ненавязчивый и наполненный смыслом сериал, 'Knight Forever' получает такую оценку:
7 из 10
-Качество видео: DVDRemux
Формат видео: MKV
Видео: MPEG2 Video 720x480 (4:3) 29.97fps 4240 kb/s
Аудио 1: Dolby AC3 48000Hz stereo 192kbps [Русский АО (Horror Maker)]
Аудио 2: Dolby AC3 48000Hz stereo 192kbps [English]
Субтитры: Английские (srt, UTF-8)-

MediaInfo

General
Unique ID                      : 51522501933436395932138724944199220942 (0x26C2DF783B3C787FAA7770A8F16AFECE)
Complete name                  : Forever Knight s02e01 Killer Instinct 1994.DVDRemux.Rus-Eng.kosmoaelita.mkv
Format                         : Matroska
Format version                 : Version 4
File size                      : 1.43 GiB
Duration                       : 44 min 11 s
Overall bit rate mode          : Variable
Overall bit rate               : 4 627 kb/s
Encoded date                   : UTC 2021-03-09 14:55:37
Writing application            : mkvmerge v35.0.0 ('All The Love In The World') 64-bit
Writing library                : libebml v1.3.9 + libmatroska v1.5.2
Video
ID                             : 1
Format                         : MPEG Video
Format version                 : Version 2
Format profile                 : Main@Main
Format settings                : CustomMatrix / BVOP
Format settings, BVOP          : Yes
Format settings, Matrix        : Custom
Format settings, GOP           : M=3, N=15
Format settings, picture struc : Frame
Codec ID                       : V_MPEG2
Codec ID/Info                  : MPEG 1 or 2 Video
Duration                       : 44 min 11 s
Bit rate mode                  : Variable
Bit rate                       : 4 240 kb/s
Maximum bit rate               : 9 800 kb/s
Width                          : 720 pixels
Height                         : 480 pixels
Display aspect ratio           : 4:3
Frame rate mode                : Constant
Frame rate                     : 29.970 (30000/1001) FPS
Standard                       : NTSC
Color space                    : YUV
Chroma subsampling             : 4:2:0
Bit depth                      : 8 bits
Scan type                      : Interlaced
Scan order                     : Top Field First
Compression mode               : Lossy
Bits/(Pixel*Frame)             : 0.409
Stream size                    : 1.31 GiB (92%)
Title                          : kosmoaelita
Language                       : English
Default                        : Yes
Forced                         : No
Audio #1
ID                             : 2
Format                         : AC-3
Format/Info                    : Audio Coding 3
Commercial name                : Dolby Digital
Codec ID                       : A_AC3
Duration                       : 44 min 11 s
Bit rate mode                  : Constant
Bit rate                       : 192 kb/s
Channel(s)                     : 2 channels
Channel layout                 : L R
Sampling rate                  : 48.0 kHz
Frame rate                     : 31.250 FPS (1536 SPF)
Compression mode               : Lossy
Stream size                    : 60.7 MiB (4%)
Title                          : Русский АО (Horror Maker)
Language                       : Russian
Service kind                   : Complete Main
Default                        : Yes
Forced                         : No
Audio #2
ID                             : 3
Format                         : AC-3
Format/Info                    : Audio Coding 3
Commercial name                : Dolby Digital
Codec ID                       : A_AC3
Duration                       : 44 min 11 s
Bit rate mode                  : Constant
Bit rate                       : 192 kb/s
Channel(s)                     : 2 channels
Channel layout                 : L R
Sampling rate                  : 48.0 kHz
Frame rate                     : 31.250 FPS (1536 SPF)
Compression mode               : Lossy
Stream size                    : 60.7 MiB (4%)
Language                       : English
Service kind                   : Complete Main
Default                        : No
Forced                         : No
Text
ID                             : 4
Format                         : UTF-8
Codec ID                       : S_TEXT/UTF8
Codec ID/Info                  : UTF-8 Plain Text
Duration                       : 43 min 37 s
Bit rate                       : 134 b/s
Count of elements              : 820
Stream size                    : 43.1 KiB (0%)
Title                          : English Subs
Language                       : English
Default                        : No
Forced                         : No
Menu
00:00:00.000                   : en:Chapter 01
00:02:40.360                   : en:Chapter 02
00:03:42.021                   : en:Chapter 03
00:15:02.301                   : en:Chapter 04
00:25:29.995                   : en:Chapter 05
00:31:44.035                   : en:Chapter 06
00:34:55.026                   : en:Chapter 07
00:41:30.020                   : en:Chapter 08
00:43:42.252                   : en:Chapter 09
00:44:09.847                   : en:Chapter 10

Скриншоты






Last edited by Darth_47 on 2021-03-10 18:40; edited 1 time in total
[Profile] [PM]

Darth_47 ®

Gender: Male

Longevity: 1 year 11 months

Posts: 847

Post 10-Mar-2021 18:40 (after 29 minutes)

[Quote]

Сбор на продолжение перевода - http://www.kosmoaelita.com/viewtopic.php?p=27903
[Profile] [PM]
Display posts:    
Reply to topic

Current time is: 12-Apr 04:08

All times are UTC + 3



You cannot post new topics in this forum
You cannot reply to topics in this forum
You cannot edit your posts in this forum
You cannot delete your posts in this forum
You cannot vote in polls in this forum
You cannot attach files in this forum
You cannot download files in this forum