Лунная маска / Moonlight Mask / Gekkô kamen [1958, Япония, фантастика, DVDRip] (СТ: Mr.Faer [Olskan]) (Sub Rus)

Reply to topic
DL-List and Torrent activity
Size:  210 MB   |    Registered:  1 month 14 days   |    Completed:  2 times

Seeder not seen: 2 hours 41 minute

 
   
 
 
 
Author Message

Faer ®

Gender: Male

Longevity: 6 years 3 months

Posts: 571

Post 25-Feb-2021 19:07

[Quote]

Лунная маска / Moonlight Mask / Gekkô kamen
Страна: Япония
Жанр: фантастика
Год выпуска: 1958
Перевод 1: Субтитры Mr.Faer [Olskan]
Cубтитры: русские
Описание: Фильм о первом японском супергерое: Лунной маске.
Качество видео: DVDRip
Формат видео: MKV
Видео: AVC, 640*272, 4:3, 30fps, 345 Кбит/с
Аудио 1: AC3, 48.0КгЦ, 224 Кбит/с, стерео
Формат субтитров: softsub (SSA/ASS)
Работа над релизом:
Видеоряд найден на nyaa
Ансаб предоставлен Kingmenu
Перевод: Mr.Faer
Консультация и помощь с хардсабом: Uboaface

MediaInfo

Общее
Уникальный идентификатор : 79754684579545930482411916047409072773 (0x3C00318AC4C2502FF38CE975D7A1CA85)
Полное имя : C:\Users\Ysera\Desktop\Gekko Kamen movie 1.mkv
Формат : Matroska
Версия формата : Version 4
Размер файла : 210 Мбайт
Продолжительность : 51 м. 23 с.
Общий поток : 570 Кбит/сек
Название фильма : 「月光仮面」劇場版シリーズ 1. 月光仮面
Дата кодирования : UTC 2021-02-25 15:44:41
Программа кодирования : mkvmerge v46.0.0 ('No Deeper Escape') 64-bit
Библиотека кодирования : libebml v1.3.10 + libmatroska v1.5.2
Видео
Идентификатор : 1
Формат : AVC
Формат/Информация : Advanced Video Codec
Профиль формата : Main@L3
Настройки формата : CABAC / 5 Ref Frames
Параметр CABAC формата : Да
Параметр RefFrames формата : 5 кадров
Идентификатор кодека : V_MPEG4/ISO/AVC
Продолжительность : 51 м. 23 с.
Битрейт : 345 Кбит/сек
Ширина : 640 пикселей
Высота : 272 пикселя
Соотношение сторон : 2,40:1
Соотношение сторон в оригинале : 2,40:1
Режим частоты кадров : Постоянный
Частота кадров : 23,976 (24000/1001) кадра/сек
Цветовое пространство : YUV
Субдискретизация насыщенности : 4:2:0
Битовая глубина : 8 бит
Тип развёртки : Прогрессивная
Бит/(Пиксели*Кадры) : 0.083
Размер потока : 127 Мбайт (60%)
Default : Да
Forced : Нет
Цветовой диапазон : Limited
Основные цвета : BT.709
Характеристики трансфера : BT.709
Коэффициенты матрицы : BT.709
Аудио
Идентификатор : 2
Формат : E-AC-3
Формат/Информация : Enhanced AC-3
Коммерческое название : Dolby Digital Plus
Идентификатор кодека : A_EAC3
Продолжительность : 51 м. 23 с.
Вид битрейта : Постоянный
Битрейт : 224 Кбит/сек
Каналы : 2 канала
Channel layout : L R
Частота : 48,0 КГц
Частота кадров : 31,250 кадров/сек (1536 SPF)
Метод сжатия : С потерями
Размер потока : 82,3 Мбайт (39%)
Язык : Japanese
Service kind : Complete Main
Default : Да
Forced : Нет
Текст
Идентификатор : 3
Формат : ASS
Идентификатор кодека : S_TEXT/ASS
Идентификатор кодека/Информация : Advanced Sub Station Alpha
Продолжительность : 51 м. 17 с.
Битрейт : 98 бит/сек
Count of elements : 593
Метод сжатия : Без потерь
Размер потока : 37,1 Кбайт (0%)
Default : Да
Forced : Нет

Скриншоты





cd Рип дополнительно залит на mail.ru cd2
Gekko Kamen movie 1.mkv.torrent
 GOLD TORRENT! DOWNLOAD TRAFFIC DOES NOT CONSIDER! 
Torrent: Registered [ 2021-02-25 19:07 ]

Download .torrent

Download

17 KB

Status: checked
Completed: 2 times
Size: 210 MB
 


Last edited by Faer on 2021-03-27 14:50; edited 1 time in total
[Profile] [PM]

Faer ®

Gender: Male

Longevity: 6 years 3 months

Posts: 571

Post 25-Feb-2021 19:20 (after 12 minutes)

[Quote]

Вообще, сейчас рекомендуется смотреть только если совсем невтерпёж: сабы не редактированы, и не найдено лучшее качество видео (у kingmenu оно с хардсабом, с которого и делался перевод).
Да и вообще сабы (визуал) переделывать надо, там косяки с оформлением у песен (из-за того что оригинал был в хардсабе, пришлось вручную их раскидывать).
Манал я этот визуал, вкратце говоря.
[Profile] [PM]
Display posts:    
Reply to topic

Current time is: 12-Apr 04:33

All times are UTC + 3



You can post new topics in this forum
You cannot reply to topics in this forum
You cannot edit your posts in this forum
You cannot delete your posts in this forum
You cannot vote in polls in this forum
You cannot attach files in this forum
You can download files in this forum