Новые Скайерс 5 / Shin Skyers 5 [1] (Кавасаки Нобору) [1971, Япония, приключения, фантастика, боевик, DVDRip] (АО: Трамвай-фильм) (СТ: Mr.Faer [Olskan]) (Sub Rus)

Reply to topic
DL-List and Torrent activity
Size:  495 MB   |    Registered:  3 months 21 day   |    Completed:  0 times

Seeder not seen: 3 months 20 days

 
   
 
 
 
Author Message

Faer ®

Gender: Male

Longevity: 6 years 5 months

Posts: 612

Post 23-Feb-2021 14:46

[Quote]

Новые Скайерс 5 / Shin Skyers 5
Страна: Япония
Жанр: приключения, фантастика
Год выпуска: 1971
Продолжительность: 00:24:43
Перевод 1: Субтитры Mr.Faer [Olskan]
Перевод 2: Озвучка Трамвай-фильм
Cубтитры: русские
Режиссер: Кавасаки Нобору
Описание: Научно-фантастический боевик о битвах между планетарной полицией и международным преступным синдикатом.
В сети обнаружена только первая серия.
Качество видео: DVDRip
Формат видео: MKV
Видео: HEVC, 640*480, 4:3, 23.976fps, 480 Кбит/с
Аудио 1:AAC, 48,0 КГц, 96 Кбит/с, стерео
Аудио 2:PCM, 48,0 КГц, 304 Кбит/с, стерео
Формат субтитров: softsub (SSA/ASS)

MediaInfo

Общее
Уникальный идентификатор : 316411958445399853831530973221641498566 (0xEE0AB9FF6450FD468AE79E76D4EBAFC6)
Полное имя : F:\Архив\Мои переводы\Shin Skyers 5 - 01.mkv
Формат : Matroska
Версия формата : Version 4
Размер файла : 495 Мбайт
Продолжительность : 24 м. 1 с.
Общий поток : 2 882 Кбит/сек
Дата кодирования : UTC 2021-02-23 11:08:43
Программа кодирования : mkvmerge v46.0.0 ('No Deeper Escape') 64-bit
Библиотека кодирования : libebml v1.3.10 + libmatroska v1.5.2
Видео
Идентификатор : 1
Формат : HEVC
Формат/Информация : High Efficiency Video Coding
Профиль формата : Format Range@L3@Main
Идентификатор кодека : V_MPEGH/ISO/HEVC
Продолжительность : 24 м. 1 с.
Битрейт : 480 Кбит/сек
Ширина : 640 пикселей
Высота : 480 пикселей
Соотношение сторон : 4:3
Режим частоты кадров : Постоянный
Частота кадров : 23,976 (24000/1001) кадра/сек
Цветовое пространство : YUV
Субдискретизация насыщенности : 4:2:0
Битовая глубина : 12 бит
Бит/(Пиксели*Кадры) : 0.065
Размер потока : 82,5 Мбайт (17%)
Библиотека кодирования : x265 2.0+61-f29d88d93c2c:[Windows][MSVC 1900][64 bit] 12bit
Настройки программы : wpp / ctu=64 / min-cu-size=8 / max-tu-size=32 / tu-intra-depth=1 / tu-inter-depth=1 / me=1 / subme=2 / merange=57 / no-rect / no-amp / max-merge=2 / temporal-mvp / no-early-skip / rskip / rdpenalty=0 / no-tskip / no-tskip-fast / strong-intra-smoothing / no-lossless / no-cu-lossless / no-constrained-intra / no-fast-intra / open-gop / no-temporal-layers / interlace=0 / keyint=250 / min-keyint=23 / scenecut=40 / rc-lookahead=20 / lookahead-slices=0 / bframes=4 / bframe-bias=0 / b-adapt=2 / ref=3 / limit-refs=3 / no-limit-modes / weightp / no-weightb / aq-mode=1 / qg-size=32 / aq-strength=1.00 / cbqpoffs=0 / crqpoffs=0 / rd=3 / psy-rd=2.00 / rdoq-level=0 / psy-rdoq=0.00 / log2-max-poc-lsb=8 / no-rd-refine / signhide / deblock=0:0 / sao / no-sao-non-deblock / b-pyramid / cutree / no-intra-refresh / rc=crf / crf=21.0 / qcomp=0.60 / qpmin=0 / qpmax=69 / qpstep=4 / ipratio=1.40 / pbratio=1.30
Default : Да
Forced : Нет
Аудио #1
Идентификатор : 2
Формат : AAC LC
Формат/Информация : Advanced Audio Codec Low Complexity
Идентификатор кодека : A_AAC-2
Продолжительность : 24 м. 1 с.
Битрейт : 96,0 Кбит/сек
Каналы : 2 канала
Channel layout : L R
Частота : 48,0 КГц
Частота кадров : 46,875 кадров/сек (1024 SPF)
Метод сжатия : С потерями
Размер потока : 16,5 Мбайт (3%)
Язык : Japanese
Default : Нет
Forced : Нет
Аудио #2
Идентификатор : 3
Формат : PCM
Настройки формата : Little / Signed
Идентификатор кодека : A_PCM/INT/LIT
Продолжительность : 24 м. 1 с.
Вид битрейта : Постоянный
Битрейт : 304 Кбит/сек
Каналы : 2 канала
Частота : 48,0 КГц
Частота кадров : 32,000 кадра/сек (1500 SPF)
Битовая глубина : 24 бит
Размер потока : 396 Мбайт (80%)
Заголовок : [Tramvai-film]
Язык : Russian
Default : Да
Forced : Нет
Текст
Идентификатор : 4
Формат : ASS
Идентификатор кодека : S_TEXT/ASS
Идентификатор кодека/Информация : Advanced Sub Station Alpha
Продолжительность : 23 м. 28 с.
Битрейт : 67 бит/сек
Count of elements : 143
Метод сжатия : Без потерь
Размер потока : 11,6 Кбайт (0%)
Заголовок : [Olskan]
Язык : Russian
Default : Да
Forced : Нет
Меню
00:00:00.000 : en:Глава 01
00:01:12.906 : en:Глава 02
00:08:43.356 : en:Глава 03
00:16:13.806 : en:Глава 04
00:23:44.924 : en:Глава 05

Скриншоты





cd Рип дополнительно залит на mail.ru cd2
Shin Skyers 5 - 01.mkv.torrent
 GOLD TORRENT! DOWNLOAD TRAFFIC DOES NOT CONSIDER! 
Torrent: Registered [ 2021-02-23 14:46 ]

Download .torrent

Download

39 KB

Status: checked
Completed: 0 times
Size: 495 MB
 
[Profile] [PM]
Display posts:    
Reply to topic

Current time is: 17-Jun 01:17

All times are UTC + 3



You can post new topics in this forum
You cannot reply to topics in this forum
You cannot edit your posts in this forum
You cannot delete your posts in this forum
You cannot vote in polls in this forum
You cannot attach files in this forum
You can download files in this forum