Шаг за грань (Сезон 2) / Один шаг в Неизведанное / One Step Beyond / Серии: 1-39 из 39 (John Newland, Axel Gruenberg, Jack Hively) [1959-1960, США, фантастика, фэнтези, триллер, драма, детектив, DVDRip] АО (Horror Maker) + Original Eng

Reply to topic
 
Author Message

Darth_47 ®

Gender: Male

Longevity: 2 years 1 month

Posts: 861

Post 11-Feb-2021 20:12

[Quote]

Шаг за грань (Сезон 2) / Один шаг в неизведанное / One Step Beyond- Страна: США, ABC Films, Joseph L. Schenck Enterprises Inc.
Жанр: фантастика, фэнтези, триллер, драма, детектив
Год выпуска: 1959-1960
Продолжительность: 39 серий по ~ 00:25:40-Перевод: Авторский (одноголосый закадровый) Horror Maker
Субтитры: нет-Режиссер: John Newland, Axel Gruenberg, Jack Hively-В ролях: John Newland ... Himself - Host 96 episodes, 1959-1961
Robert Douglas ... Gen. George Washington / ... 3 episodes, 1959-1961
Olan Soule ... Conductor / ... 3 episodes, 1959-1960
Will J. White ... Corporal / ... 3 episodes, 1959-1961
Francis De Sales ... Dr. Norton / ... 3 episodes, 1959-1960
Rudolph Anders ... Dr. Heinrick Swansen / ... 3 episodes, 1959-1960
Jeanne Bates ... Edna Gibbs / ... 3 episodes, 1959-1960
Albert Salmi ... Peter Hurkos 2 episodes, 1960
Norma Crane ... Emily Harkness / ... 2 episodes, 1959-1960
Barbara Lord ... Delia Huston / ... 2 episodes, 1959-1960
Alfred Ryder ... John Marriott / ... 2 episodes, 1959-1960
Charles Aidman ... Carl Archer / ... 2 episodes, 1959-1960
Jean Allison ... Carol Jansen / ... 2 episodes, 1959-1960
Joanne Linville ... Aunt Minna Boswell / ... 2 episodes, 1959-1960
Harry Townes ... Dr. Alexander Slawson / ... 2 episodes, 1959-1960
Betty Garde ... Madame Lola / ... 2 episodes, 1960-1961
John Kellogg ... Dr. Llewellyn / ... 2 episodes, 1960
Robert Ellenstein ... Captain Peabody / ... 2 episodes, 1959
Wesley Lau ... Lt. Harold Wilenski / ... 2 episodes, 1959-1960
H.M. Wynant ... Pvt. Lacoste / ... 2 episodes, 1959-1960
and very others
-Описание: Снятый в одно время с более известной "Сумеречной Зоной", этот сериал явился своеобразным ответом на большой интерес к паранормальным явлениям. Вместо выдуманных историй со сверхъестественными поворотами сюжета, здесь искали "реальных" историй с призраками, таинственными исчезновениями, монстрами и т. д. Никаких объяснений этим загадкам так дано и не было, и зрителям оставалось только чесать головы и спрашивать друг друга, неужели всё это правда?- -Релиз

Работа над релизом:
Рип найден на tv-vault.me
Русский авторский перевод - Horror Maker

-

Список серий

01. Delusion
02. Ordeal on Locust Street
03. Brainwave
04. Doomsday
05. Night of the Kill
06. The Inheritance
07. The Open Window
08. Message from Clara
09. Forked Lightning
10. Reunion
11. Dead Ringer
12. The Stone Cutter
13. Father Image
14. Make Me Not a Witch
15. The Hand
16. The Justice Tree
17. Earthquake
18. The Forests of the Night
19. Call from Tomorrow
20. Who Are You?
21. The Day the World Wept-The Lincoln Story
22. The Lovers
23. Vanishing Point
24. The Mask
25. The Haunting
26. The Explorer
27. The Clown
28. I Saw You Tomorrow
29. Encounter
30. The Peter Hurkos Story: Part 1
31. The Peter Hurkos Story: Part 2
32. Delia
33. The Visitor
34. Gypsy
35. Contact
36. The Lonely Room
37. House of the Dead
38. Goodbye Grandpa
39. The Storm
-Качество видео: DVDRip
Формат видео: MKV
Видео: MPEG4 Video (H264) 640x480 29.97fps 700 kb/s
Аудио 1: Dolby AC3 48000Hz stereo 192kbps [Русский АО (Horror Maker)]
Аудио 2: AAC 44100Hz stereo 128kbps [English]-

MediaInfo

General
Unique ID                      : 180657175347524635254005106513658481848 (0x87E94E6E11B128799E87DC67ECBF8CB8)
Complete name                  : One Step Beyond s02e01 Delusion 1959.x264.DVDRip.Rus-Eng.kosmoaelita.mkv
Format                         : Matroska
Format version                 : Version 4
File size                      : 182 MiB
Duration                       : 24 min 56 s
Overall bit rate               : 1 020 kb/s
Movie name                     : The Terminator (1984) - Release for RuTracker by Skazhutin & Прагматик
Encoded date                   : UTC 2021-02-11 16:58:45
Writing application            : mkvmerge v35.0.0 ('All The Love In The World') 64-bit
Writing library                : libebml v1.3.9 + libmatroska v1.5.2 / Lavf58.29.100
Video
ID                             : 1
Format                         : AVC
Format/Info                    : Advanced Video Codec
Format profile                 : Baseline@L3
Format settings                : 1 Ref Frames
Format settings, CABAC         : No
Format settings, Reference fra : 1 frame
Codec ID                       : V_MPEG4/ISO/AVC
Duration                       : 24 min 56 s
Bit rate                       : 700 kb/s
Width                          : 640 pixels
Height                         : 480 pixels
Display aspect ratio           : 4:3
Frame rate mode                : Constant
Frame rate                     : 29.970 (29970/1000) FPS
Color space                    : YUV
Chroma subsampling             : 4:2:0
Bit depth                      : 8 bits
Scan type                      : Progressive
Bits/(Pixel*Frame)             : 0.076
Stream size                    : 124 MiB (68%)
Title                          : kosmoaelita
Writing library                : x264 core 148 r2638 7599210
Encoding settings              : cabac=0 / ref=1 / deblock=1:0:0 / analyse=0x1:0x111 / me=hex / subme=7 / psy=1 / psy_rd=1.00:0.00 / mixed_ref=0 / me_range=16 / chroma_me=1 / trellis=1 / 8x8dct=0 / cqm=0 / deadzone=21,11 / fast_pskip=1 / chroma_qp_offset=-2 / threads=15 / lookahead_threads=2 / sliced_threads=0 / nr=0 / decimate=1 / interlaced=0 / bluray_compat=0 / constrained_intra=0 / bframes=0 / weightp=0 / keyint=250 / keyint_min=25 / scenecut=40 / intra_refresh=0 / rc_lookahead=40 / rc=2pass / mbtree=1 / bitrate=700 / ratetol=1.0 / qcomp=0.60 / qpmin=0 / qpmax=69 / qpstep=4 / cplxblur=20.0 / qblur=0.5 / vbv_maxrate=768 / vbv_bufsize=1400 / nal_hrd=none / filler=0 / ip_ratio=1.40 / aq=1:1.00
Language                       : English
Default                        : Yes
Forced                         : No
Audio #1
ID                             : 2
Format                         : AC-3
Format/Info                    : Audio Coding 3
Commercial name                : Dolby Digital
Codec ID                       : A_AC3
Duration                       : 24 min 55 s
Bit rate mode                  : Constant
Bit rate                       : 192 kb/s
Channel(s)                     : 2 channels
Channel layout                 : L R
Sampling rate                  : 48.0 kHz
Frame rate                     : 31.250 FPS (1536 SPF)
Compression mode               : Lossy
Delay relative to video        : -23 ms
Stream size                    : 34.2 MiB (19%)
Title                          : Русский АО (Horror Maker)
Language                       : Russian
Service kind                   : Complete Main
Default                        : Yes
Forced                         : No
Audio #2
ID                             : 3
Format                         : AAC LC
Format/Info                    : Advanced Audio Codec Low Complexity
Codec ID                       : A_AAC-2
Duration                       : 24 min 55 s
Bit rate                       : 128 kb/s
Channel(s)                     : 2 channels
Channel layout                 : L R
Sampling rate                  : 44.1 kHz
Frame rate                     : 43.066 FPS (1024 SPF)
Compression mode               : Lossy
Delay relative to video        : -23 ms
Stream size                    : 22.9 MiB (13%)
Language                       : English
Default                        : No
Forced                         : No

Скриншоты





















Last edited by Darth_47 on 2021-05-15 19:01; edited 13 times in total
[Profile] [PM]

CROMAG

Gender: Male

Longevity: 5 years 9 months

Posts: 3660

Location: Прибалтика

Post 11-Feb-2021 20:51 (after 39 minutes)

[Quote]

Мерси
[Profile] [PM]

Darth_47 ®

Gender: Male

Longevity: 2 years 1 month

Posts: 861

Post 11-Feb-2021 22:07 (after 1 hour 15 minutes)

[Quote]

Я не указал, откуда рип и кто спонсировал, ибо не знаю.
[Profile] [PM]

CROMAG

Gender: Male

Longevity: 5 years 9 months

Posts: 3660

Location: Прибалтика

Post 11-Feb-2021 22:27 (after 20 minutes)

[Quote]

Рип с тваулта Спонсировал я но указывать не надо потому что спонсоров будет со всего трекера по нитке
[Profile] [PM]

Darth_47 ®

Gender: Male

Longevity: 2 years 1 month

Posts: 861

Post 11-Feb-2021 23:51 (after 1 hour 23 minutes)

[Quote]

29095Рип с тваулта Спонсировал я но указывать не надо потому что спонсоров будет со всего трекера по нитке
Ну так может нужно указать этих ниточных спонсоров?
[Profile] [PM]

CROMAG

Gender: Male

Longevity: 5 years 9 months

Posts: 3660

Location: Прибалтика

Post 12-Feb-2021 00:03 (after 12 minutes)

[Quote]

Как хочешь Ниточные спонсоры пока в будущем
[Profile] [PM]

pompilius

Gender: Male

Longevity: 3 years 7 months

Posts: 438

Post 16-Feb-2021 21:36 (after 4 days)

[Quote]

Шаг за грань (Сезон 2) / Один шаг в Неизведанное / One Step Beyond / Серии: 1-1 из 22 (John Newland, Axel Gruenberg, Jack Hively) [1959-1960, США, фантастика, фэнтези, триллер, драма, детектив, DVDRip] АО (Horror Maker) + Original Eng
Продолжительность: 22 серии
Почему 22 серии всего? Если верить имбд то их в сезоне 39.
[Profile] [PM]

Darth_47 ®

Gender: Male

Longevity: 2 years 1 month

Posts: 861

Post 16-Feb-2021 22:17 (after 41 minute)

[Quote]

29124Почему 22 серии всего? Если верить имбд то их в сезоне 39.
Косяк
[Profile] [PM]

Darth_47 ®

Gender: Male

Longevity: 2 years 1 month

Posts: 861

Post 15-Mar-2021 14:07 (after 26 days)

[Quote]

Добавлены серии 2-8.
[Profile] [PM]

Darth_47 ®

Gender: Male

Longevity: 2 years 1 month

Posts: 861

Post 21-Mar-2021 18:43 (after 6 days)

[Quote]

Добавлены серии 9-15.
[Profile] [PM]

Darth_47 ®

Gender: Male

Longevity: 2 years 1 month

Posts: 861

Post 31-Mar-2021 14:00 (after 9 days)

[Quote]

Добавлены серии 16-22.
[Profile] [PM]

Darth_47 ®

Gender: Male

Longevity: 2 years 1 month

Posts: 861

Post 08-Apr-2021 22:00 (after 8 days)

[Quote]

Добавлены серии 23-28, 30-31.
[Profile] [PM]

CROMAG

Gender: Male

Longevity: 5 years 9 months

Posts: 3660

Location: Прибалтика

Post 08-Apr-2021 22:04 (after 4 minutes)

[Quote]

Деньги кончились Хотите увидеть продолжение точнее концовку сезона тогда вам сюда http://www.kosmoaelita.com/viewtopic.php?t=3206
[Profile] [PM]

Dionisiy22

Gender: Unknown

Longevity: 3 years 4 months

Posts: 67

Post 15-May-2021 10:21 (after 1 month 6 days)

[Quote]

Чего-то как-то странно грузит. Загрузка идет, показывает, что за час загрузиться, но застраяла между 4.4 и 4.7 %% Вторые сутки качаю и все в одном положении
[Profile] [PM]

Darth_47 ®

Gender: Male

Longevity: 2 years 1 month

Posts: 861

Post 15-May-2021 19:01 (after 8 hours)

[Quote]

Добавлены все недостающие серии. Сезон полностью переведен.
[Profile] [PM]

CROMAG

Gender: Male

Longevity: 5 years 9 months

Posts: 3660

Location: Прибалтика

Post 16-May-2021 07:40 (after 12 hours)

[Quote]

Спасибо всем причастным
[Profile] [PM]
Display posts:    
Reply to topic

Current time is: 18-Jun 02:13

All times are UTC + 3



You cannot post new topics in this forum
You cannot reply to topics in this forum
You cannot edit your posts in this forum
You cannot delete your posts in this forum
You cannot vote in polls in this forum
You cannot attach files in this forum
You cannot download files in this forum