Харима Сакура: Фотон будущего / Future Photon Harima Sakura [2013, Япония, фантастика, WEBRip] (СТ: Laman [Olskan]) (Sub Rus)

Reply to topic
DL-List and Torrent activity
Size:  81 MB   |    Registered:  14 days   |    Completed:  0 times

Seeder not seen: 12 days

 
   
 
 
 
Author Message

Faer ®

Gender: Male

Longevity: 6 years 1 month

Posts: 529

Post 11-Feb-2021 00:33

[Quote]

Харима Сакура: Фотон будущего / Future Photon Harima Sakura
Страна: Япония
Жанр: фантастика
Год выпуска: 2013
Перевод 1: Субтитры Laman [Olskan]
Cубтитры: русские
Описание: Японская исследовательская лаборатория SACLA выпустила короткое аниме под названием «Future Photon Harima Sakura», чтобы продвигать свой лазер на свободных электронах (X-FEL), самый яркий источник рентгеновского излучения в мире.
Если сравнивать с чем-то знакомым, это переосмысление Wonderbeat scramble. Тут так же персонаж проникает в тело человека, и занимается его исследованием изнутри.
Также прошу обратить внимание, что перевод с итальянского, англоязычных субтитров нет в природе.

Качество видео: WEBRip
Формат видео: MKV
Видео: AVC, 1280*720, 16:9, 23.976fps, 8578 Кбит/с
Аудио 1: AAC, 44.1КгЦ, 126 Кбит/с, стерео
Формат субтитров: softsub (SSA/ASS)

MediaInfo

Общее
Уникальный идентификатор : 97949822901381611647068281494734807337 (0x49B0731F5D116B83DFB618476902A129)
Полное имя : C:\Users\Ysera\Desktop\Mirai Koushi Harima SACLA.mkv
Формат : Matroska
Версия формата : Version 4
Размер файла : 81,5 Мбайт
Продолжительность : 1 м. 18 с.
Общий поток : 8 710 Кбит/сек
Название фильма : Mirai Koushi Harima SACLA: il robot a sottaceti
Дата кодирования : UTC 2021-02-10 21:11:04
Программа кодирования : mkvmerge v46.0.0 ('No Deeper Escape') 64-bit
Библиотека кодирования : libebml v1.3.10 + libmatroska v1.5.2
Attachments : BerlinMyriad-BoldAlt.otf
Видео
Идентификатор : 1
Формат : AVC
Формат/Информация : Advanced Video Codec
Профиль формата : High 4:4:4 Predictive@L5
Настройки формата : CABAC / 16 Ref Frames
Параметр CABAC формата : Да
Параметр RefFrames формата : 16 кадров
Идентификатор кодека : V_MPEG4/ISO/AVC
Продолжительность : 1 м. 18 с.
Битрейт : 8 578 Кбит/сек
Ширина : 1 280 пикселей
Высота : 720 пикселей
Соотношение сторон : 16:9
Режим частоты кадров : Постоянный
Частота кадров : 23,976 (24000/1001) кадра/сек
Цветовое пространство : YUV
Субдискретизация насыщенности : 4:4:4
Битовая глубина : 10 бит
Тип развёртки : Прогрессивная
Бит/(Пиксели*Кадры) : 0.388
Размер потока : 80,3 Мбайт (98%)
Заголовок : [AT-Mabushii] Mirai Koushi Harima SACLA [Web 720p Hi444P]
Библиотека кодирования : x264 core 148 r2692kMod 64f4e24
Настройки программы : cabac=1 / ref=16 / deblock=1:2:2 / analyse=0x3:0x133 / me=umh / subme=10 / psy=1 / fade_compensate=0.00 / psy_rd=1.00:0.00 / mixed_ref=1 / me_range=32 / chroma_me=1 / trellis=2 / 8x8dct=1 / cqm=0 / deadzone=21,11 / fast_pskip=0 / chroma_qp_offset=0 / threads=12 / lookahead_threads=2 / sliced_threads=0 / nr=0 / decimate=0 / interlaced=0 / bluray_compat=0 / constrained_intra=0 / fgo=10 / bframes=8 / b_pyramid=2 / b_adapt=2 / b_bias=0 / direct=3 / weightb=1 / open_gop=0 / weightp=2 / keyint=260 / keyint_min=25 / scenecut=40 / intra_refresh=0 / rc_lookahead=80 / rc=crf / mbtree=1 / crf=17.0000 / qcomp=0.75 / qpmin=0 / qpmax=81 / qpstep=4 / ip_ratio=1.40 / aq=1:1.00
Язык : Japanese
Default : Да
Forced : Нет
Цветовой диапазон : Limited
Коэффициенты матрицы : BT.709
Аудио
Идентификатор : 2
Формат : AAC LC
Формат/Информация : Advanced Audio Codec Low Complexity
Идентификатор кодека : A_AAC-2
Продолжительность : 1 м. 18 с.
Битрейт : 126 Кбит/сек
Каналы : 2 канала
Channel layout : L R
Частота : 44,1 КГц
Частота кадров : 43,066 кадра/сек (1024 SPF)
Метод сжатия : С потерями
Размер потока : 1,17 Мбайт (1%)
Заголовок : AAC 2.0ch
Язык : Japanese
Default : Да
Forced : Нет
Текст
Идентификатор : 3
Формат : ASS
Идентификатор кодека : S_TEXT/ASS
Идентификатор кодека/Информация : Advanced Sub Station Alpha
Продолжительность : 1 м. 16 с.
Битрейт : 200 бит/сек
Count of elements : 16
Метод сжатия : Без потерь
Размер потока : 1,87 Кбайт (0%)
Язык : Italian
Default : Да
Forced : Нет

Скриншоты




cd Рип дополнительно залит на mail.ru cd2
Mirai Koushi Harima SACLA.mkv.torrent
 GOLD TORRENT! DOWNLOAD TRAFFIC DOES NOT CONSIDER! 
Torrent: Registered [ 2021-02-11 00:46 ]

Download .torrent

Download

13 KB

Status: checked
Completed: 0 times
Size: 81 MB
 
[Profile] [PM]
Display posts:    
Reply to topic

Current time is: 25-Feb 07:50

All times are UTC + 3



You can post new topics in this forum
You cannot reply to topics in this forum
You cannot edit your posts in this forum
You cannot delete your posts in this forum
You cannot vote in polls in this forum
You cannot attach files in this forum
You can download files in this forum