Госпожа Кейфуку / Keifuku-san (Тацуки) [2017, Япония, фантастика, DVDRip] (СТ: Mr.Faer [Olskan]) (Sub Rus)

Reply to topic
DL-List and Torrent activity
Size:  24 MB   |    Registered:  8 months 7 days   |    Completed:  1 time

Seeders:

Username ULR UL DL UL speed DL speed
pompilius 0 0- 0- 0- 0-
shows data only for the current session
 
   
 
 
 
Author Message

Faer ®

Gender: Male

Longevity: 6 years 8 months

Posts: 687

Post 15-Jan-2021 10:07

[Quote]

Госпожа Кейфуку / Keifuku-san
Страна: Япония
Жанр: фантастика
Год выпуска: 2017
Продолжительность: 00:05:26
Перевод 1: Субтитры _ Mr.Faer [Olskan]
Cубтитры: русские
Режиссер: Тацуки
Описание: Подготовленная к фестивалю Бон короткометражка, повествующая о дежурной по станции на гигантской железной дороге между мирами.
Качество видео: DVDRip
Формат видео: MKV
Видео: VP9, 1280*720, 16:9, 23.976fps, 480 Кбит/с
Аудио 1: OPUS, 48,0 КГц, 124 Кбит/с, стерео
Формат субтитров: softsub (SSA/ASS)

MediaInfo

Общее
Уникальный идентификатор : 31490881268729836122024067359669679886 (0x17B0EC51A9669C7492DB249838F2F70E)
Полное имя : C:\Users\Ysera\Desktop\Keifuku-san.mkv
Формат : Matroska
Версия формата : Version 4
Размер файла : 23,9 Мбайт
Продолжительность : 5 м. 26 с.
Общий поток : 615 Кбит/сек
Дата кодирования : UTC 2021-01-15 06:04:26
Программа кодирования : mkvmerge v46.0.0 ('No Deeper Escape') 64-bit
Библиотека кодирования : libebml v1.3.10 + libmatroska v1.5.2
Attachments : DIN 1451 Mittelschrift.ttf / erasdust.ttf / CABIN-BOLD.OTF / Cabin-BoldItalic.otf
Видео
Идентификатор : 1
Формат : VP9
Идентификатор кодека : V_VP9
Продолжительность : 5 м. 26 с.
Битрейт : 480 Кбит/сек
Ширина : 1 280 пикселей
Высота : 720 пикселей
Соотношение сторон : 16:9
Режим частоты кадров : Постоянный
Частота кадров : 23,976 (24000/1001) кадра/сек
Цветовое пространство : YUV
Бит/(Пиксели*Кадры) : 0.022
Размер потока : 18,7 Мбайт (78%)
Default : Да
Forced : Нет
Цветовой диапазон : Limited
Коэффициенты матрицы : BT.709
Аудио
Идентификатор : 2
Формат : Opus
Идентификатор кодека : A_OPUS
Продолжительность : 5 м. 26 с.
Битрейт : 124 Кбит/сек
Каналы : 2 канала
Channel layout : L R
Частота : 48,0 КГц
Частота кадров : 50,001 кадров/сек (960 SPF)
Метод сжатия : С потерями
Размер потока : 4,82 Мбайт (20%)
Язык : Japanese
Default : Да
Forced : Нет
Текст
Идентификатор : 3
Формат : ASS
Идентификатор кодека : S_TEXT/ASS
Идентификатор кодека/Информация : Advanced Sub Station Alpha
Продолжительность : 5 м. 20 с.
Битрейт : 2 702 бит/сек
Count of elements : 838
Метод сжатия : Без потерь
Размер потока : 106 Кбайт (0%)
Заголовок : Mr.Faer [Olskan]
Язык : Russian
Default : Да
Forced : Нет

Скриншоты




cd Рип дополнительно залит на mail.ru cd2
Keifuku-san.mkv.torrent
 GOLD TORRENT! DOWNLOAD TRAFFIC DOES NOT CONSIDER! 
Torrent: Registered [ 2021-01-15 10:07 ]

Download .torrent

Download

8 KB

Status: checked
Completed: 1 times
Size: 24 MB
 
[Profile] [PM]

CROMAG

Gender: Male

Longevity: 6 years

Posts: 3675

Location: Прибалтика

Post 15-Jan-2021 12:49 (after 2 hours 42 minutes)

[Quote]

Флаер ты что на решил японскими картинками завалить?
[Profile] [PM]

Faer ®

Gender: Male

Longevity: 6 years 8 months

Posts: 687

Post 15-Jan-2021 12:57 (after 7 minutes)

[Quote]

28918Флаер ты что на решил японскими картинками завалить?
Да вроде закончились уже.
[Profile] [PM]

CROMAG

Gender: Male

Longevity: 6 years

Posts: 3675

Location: Прибалтика

Post 15-Jan-2021 13:02 (after 5 minutes)

[Quote]

Кхе
[Profile] [PM]
Display posts:    
Reply to topic

Current time is: 23-Sep 09:15

All times are UTC + 3



You can post new topics in this forum
You cannot reply to topics in this forum
You cannot edit your posts in this forum
You cannot delete your posts in this forum
You cannot vote in polls in this forum
You cannot attach files in this forum
You can download files in this forum