Двухчастотный радар мониторинга осадков / DPR: Dual-frequency Precipitation Radar / DPRスペシャルムービー [2013, Япония, документальный, WEBRip-1080p] (СТ: Mr.Faer [Olskan]) (Sub Rus)

Reply to topic
DL-List and Torrent activity
Size:  68 MB   |    Registered:  1 month 22 days   |    Completed:  0 times

Seeder not seen: 1 month 15 days

 
   
 
 
 
Author Message

Faer ®

Gender: Male

Longevity: 6 years 1 month

Posts: 529

Post 02-Jan-2021 22:42

[Quote]

Двухчастотный радар мониторинга осадков / DPR: Dual-frequency Precipitation Radar / DPRスペシャルムービー
Страна: Япония
Жанр: документальный, поседневность
Год выпуска: 2013
Перевод 1: Субтитры Mr.Faer [Olskan]
Cубтитры: русские
Описание: Аниме, созданное по заказу JAXA (Японское агентство аэрокосмических исследований) и NASA (Национальное управление по аэронавтике и исследованию космического пространства), которое продвигает космическую миссию РМО (Двухчастотного радара мониторинга осадков).
Качество видео: WEBRip-1080p
Формат видео: MKV
Видео: AVC, 1920*1080, 16:9, 23.976fps, 1246 Кбит/с
Аудио 1: AAC, 44.1КгЦ, 192 Кбит/с, стерео
Формат субтитров: softsub (SSA/ASS)

MediaInfo

Общее
Уникальный идентификатор : 208131336512168896875255243203945363317 (0x9C94A32869E033E1C70D8743714AF775)
Полное имя : C:\Users\Ysera\Desktop\JAXA - DPR.mkv
Формат : Matroska
Версия формата : Version 4
Размер файла : 67,7 Мбайт
Продолжительность : 6 м. 38 с.
Общий поток : 1 425 Кбит/сек
Дата кодирования : UTC 2021-01-02 19:36:18
Программа кодирования : mkvmerge v46.0.0 ('No Deeper Escape') 64-bit
Библиотека кодирования : libebml v1.3.10 + libmatroska v1.5.2
Attachments : ArnoPro-Smbd.otf / Simply Glamorous.ttf / times.ttf / timesbd.ttf
Видео
Идентификатор : 2
Формат : AVC
Формат/Информация : Advanced Video Codec
Профиль формата : High@L4
Настройки формата : CABAC / 3 Ref Frames
Параметр CABAC формата : Да
Параметр RefFrames формата : 3 кадра
Идентификатор кодека : V_MPEG4/ISO/AVC
Продолжительность : 6 м. 38 с.
Битрейт : 1 246 Кбит/сек
Ширина : 1 920 пикселей
Высота : 1 080 пикселей
Соотношение сторон : 16:9
Режим частоты кадров : Постоянный
Частота кадров : 23,976 (24000/1001) кадра/сек
Цветовое пространство : YUV
Субдискретизация насыщенности : 4:2:0
Битовая глубина : 8 бит
Тип развёртки : Прогрессивная
Бит/(Пиксели*Кадры) : 0.025
Размер потока : 59,2 Мбайт (87%)
Библиотека кодирования : x264 core 155 r2901 7d0ff22
Default : Да
Forced : Нет
Цветовой диапазон : Limited
Основные цвета : BT.709
Характеристики трансфера : BT.709
Коэффициенты матрицы : BT.709
Аудио
Идентификатор : 3
Формат : AAC LC
Формат/Информация : Advanced Audio Codec Low Complexity
Идентификатор кодека : A_AAC-2
Продолжительность : 6 м. 38 с.
Битрейт : 128 Кбит/сек
Каналы : 2 канала
Channel layout : L R
Частота : 44,1 КГц
Частота кадров : 43,066 кадра/сек (1024 SPF)
Метод сжатия : С потерями
Размер потока : 6,08 Мбайт (9%)
Язык : Japanese
Default : Да
Forced : Нет
Текст
Идентификатор : 1
Формат : ASS
Идентификатор кодека : S_TEXT/ASS
Идентификатор кодека/Информация : Advanced Sub Station Alpha
Продолжительность : 4 м. 12 с.
Битрейт : 159 бит/сек
Count of elements : 43
Метод сжатия : Без потерь
Размер потока : 4,90 Кбайт (0%)
Заголовок : Olskan
Язык : Russian
Default : Да
Forced : Нет

Скриншоты




cd Рип дополнительно залит на mail.ru cd2
JAXA - DPR.mkv.torrent
Torrent: Registered [ 2021-01-02 22:42 ]

Download .torrent

Download

11 KB

Status: checked
Completed: 0 times
Size: 68 MB
 
[Profile] [PM]

Faer ®

Gender: Male

Longevity: 6 years 1 month

Posts: 529

Post 02-Jan-2021 22:47 (after 4 minutes)

[Quote]

Он не документальный, он скорее научно-популяризирующий (а есть-ли такой термин?).
[Profile] [PM]

Darth_47

Gender: Male

Longevity: 1 year 9 months

Posts: 809

Post 03-Jan-2021 00:25 (after 1 hour 37 minutes)

[Quote]

28847Он не документальный, он скорее научно-популяризирующий (а есть-ли такой термин?).
Есть термин "научно-популярный")
[Profile] [PM]

Faer ®

Gender: Male

Longevity: 6 years 1 month

Posts: 529

Post 03-Jan-2021 00:27 (after 2 minutes)

[Quote]

28848Есть термин "научно-популярный")
Хмм, точно. Как-то я его забыл.
[Profile] [PM]
Display posts:    
Reply to topic

Current time is: 25-Feb 07:45

All times are UTC + 3



You can post new topics in this forum
You cannot reply to topics in this forum
You cannot edit your posts in this forum
You cannot delete your posts in this forum
You cannot vote in polls in this forum
You cannot attach files in this forum
You can download files in this forum