Автомен / Automan (Ли Катзин) [1983, США, фантастика, боевик, DVDRip-AVC] [s01e1-4] (АО : Трамвай-фильм)

Reply to topic
DL-List and Torrent activity
Downloading
Complete
Size:  3.07 GB   |    Registered:  11 hours   |    Completed:  1 time

Seeder not seen: 54 minutes

 
   
 
 
 
Author Message

Трамвай-фильм ®

Gender: Male

Longevity: 6 years 8 months

Posts: 1896

Location: Россия

Post 25-Dec-2020 19:19

[Quote]

Автомен / Automan / s01e1-...
Страна: США
Жанр: фантастика, боевик
Год выпуска: 1983
Серии: 4 из 13
Продолжительность: 1х01:12:44, 2-..х00:49:38
Перевод: Авторский (одноголосый) Трамвай-фильм
Cубтитры: нет
Режиссер: Ли Катзин
В ролях: Дези Арназ мл., Чак Вагнер, Хизер МакНэир, Джеральд О'Логхлин
Описание: Полицейский компьютерный эксперт Уолтер, которого никто не воспринимает всерьёз, с помощью сложного программного комплекса создает себе идеального напарника-голограмму, возможности которого безграничны, но только в ночное время
Качество видео: DVDRip-AVC
Видео: MPEG4 Video (H264), 720x576, 25fps, 1 416 kb/s
Аудио 1: AAC, 44100Hz, stereo, 152 kb/s
Аудио 2: AAC, 48000Hz, stereo, 160 kb/s

MediaInfo

General
Unique ID : 220893685724622238579907101800809547982 (0xA62E938E0DA5021891CBE79D424AC8CE)
Complete name : automan.1982\S01E01 - Automan.mkv
Format : Matroska
Format version : Version 4 / Version 2
File size : 901 MiB
Duration : 1 h 12 min
Overall bit rate : 1 731 kb/s
Encoded date : UTC 2020-12-24 10:28:44
Writing application : mkvmerge v7.1.0 ('Good Love') 32bit built on Jul 27 2014 12:59:18
Writing library : libebml v1.3.0 + libmatroska v1.4.1
Video
ID : 1
Format : AVC
Format/Info : Advanced Video Codec
Format profile : High@L4.1
Format settings : CABAC / 8 Ref Frames
Format settings, CABAC : Yes
Format settings, ReFrames : 8 frames
Codec ID : V_MPEG4/ISO/AVC
Duration : 1 h 12 min
Bit rate : 1 416 kb/s
Width : 720 pixels
Height : 576 pixels
Display aspect ratio : 4:3
Frame rate mode : Constant
Frame rate : 25.000 FPS
Standard : PAL
Color space : YUV
Chroma subsampling : 4:2:0
Bit depth : 8 bits
Scan type : Progressive
Bits/(Pixel*Frame) : 0.137
Stream size : 737 MiB (82%)
Writing library : x264 core 130 r2273 b3065e6
Encoding settings : cabac=1 / ref=8 / deblock=1:0:0 / analyse=0x3:0x133 / me=umh / subme=9 / psy=1 / psy_rd=1.00:0.00 / mixed_ref=1 / me_range=16 / chroma_me=1 / trellis=2 / 8x8dct=1 / cqm=0 / deadzone=21,11 / fast_pskip=1 / chroma_qp_offset=-2 / threads=12 / lookahead_threads=1 / sliced_threads=0 / nr=0 / decimate=1 / interlaced=0 / bluray_compat=0 / constrained_intra=0 / bframes=3 / b_pyramid=2 / b_adapt=2 / b_bias=0 / direct=3 / weightb=1 / open_gop=0 / weightp=2 / keyint=250 / keyint_min=25 / scenecut=40 / intra_refresh=0 / rc_lookahead=60 / rc=crf / mbtree=1 / crf=22.0 / qcomp=0.60 / qpmin=0 / qpmax=69 / qpstep=4 / vbv_maxrate=62500 / vbv_bufsize=78125 / crf_max=0.0 / nal_hrd=none / ip_ratio=1.40 / aq=1:1.00
Default : Yes
Forced : No
Color range : Limited
Color primaries : BT.601 PAL
Transfer characteristics : BT.709
Matrix coefficients : BT.601
Audio #1
ID : 2
Format : AAC
Format/Info : Advanced Audio Codec
Format profile : LC
Codec ID : A_AAC-2
Duration : 1 h 12 min
Bit rate : 152 kb/s
Channel(s) : 2 channels
Channel positions : Front: L R
Sampling rate : 44.1 kHz
Frame rate : 43.066 FPS (1024 SPF)
Compression mode : Lossy
Stream size : 79.1 MiB (9%)
Title : tramvai.film
Language : Russian
Default : Yes
Forced : No
Audio #2
ID : 3
Format : AAC
Format/Info : Advanced Audio Codec
Format profile : LC
Codec ID : A_AAC-2
Duration : 1 h 12 min
Bit rate : 160 kb/s
Channel(s) : 2 channels
Channel positions : Front: L R
Sampling rate : 48.0 kHz
Frame rate : 46.875 FPS (1024 SPF)
Compression mode : Lossy
Stream size : 83.2 MiB (9%)
Title : original
Language : English
Default : No
Forced : No

Скриншоты








automan.1983.torrent
Torrent: Registered [ Yesterday 14:49 ]

Download .torrent

Download

16 KB

Status: checked
Completed: 1 times
Size: 3.07 GB
 


Last edited by Трамвай-фильм on Yesterday 14:49; edited 6 times in total
[Profile] [PM]

Трамвай-фильм ®

Gender: Male

Longevity: 6 years 8 months

Posts: 1896

Location: Россия

Post 26-Dec-2020 11:02 (after 15 hours)

[Quote]

Чистый голос к первой серии, на всякий случай.
[Profile] [PM]

Трамвай-фильм ®

Gender: Male

Longevity: 6 years 8 months

Posts: 1896

Location: Россия

Post 03-Jan-2021 14:58 (after 8 days)

[Quote]

Добавлена 2 серия (в раздачу), чистый голос - https://dropmefiles.com/dHV3P
[Profile] [PM]

Starlay

Gender: Male

Longevity: 1 year 4 months

Posts: 146

Post 04-Mar-2021 18:46 (after 2 months 1 day)

[Quote]

Кто успел третью серию скачать, можете раздать или залить?
[Profile] [PM]
Display posts:    
Reply to topic

Current time is: 12-Apr 02:46

All times are UTC + 3



You cannot post new topics in this forum
You cannot reply to topics in this forum
You cannot edit your posts in this forum
You cannot delete your posts in this forum
You cannot vote in polls in this forum
You cannot attach files in this forum
You can download files in this forum