Парадокс Клатоса / The Klatos Paradox ( Марс Фарго) [2020, США, ужасы, фантастика, триллер, драма, детектив, WEBRip 1080p] ЛО (den904) + Sub (Rus, Eng) + Original Eng

Reply to topic
 
Author Message

Darth_47 ®

Gender: Male

Longevity: 2 years 4 months

Posts: 944

Post 21-Dec-2020 19:50

[Quote]

Парадокс Клатоса / The Klatos Paradox
Страна: США
Жанр: ужасы, фантастика, триллер, драма, детектив
Год выпуска: 2020
Продолжительность: 01:56:30
Перевод: Любительский (одноголосый закадровый) den904
Режиссер: Марс Фарго
В ролях: Марс Фарго, Кеннеди Хоббс, Reagan Kacmar, Blake Laisure, Лорен МакБрайд-Описание: Неуравновешенный путешественник во времени объединяется со своей версией из другой вселенной, чтобы исправить парадокс, который стремительно разрушает мир.

-Релиз

Работа над релизом:
Видеоряд скачан с rarbg
Перевод - Faer
Озвучка - den904
Спонсоры - Faer, snorrinort, pompilius, 4st
-Качество видео: WEBRip 1080p
Формат видео: MKV
Видео: MPEG4 Video (H264) 1920x1080 24fps 4082 kb/s
Аудио 1: Dolby AC3 48000Hz stereo 192kbps Русский ЛО (den904)
Аудио 2: E-AC-3 48000Hz stereo 224kbps English-

MediaInfo

General
Unique ID                      : 206525665582443639700174463677623951154 (0x9B5F65780B3779985B48077E0CCBDF32)
Complete name                  : The Klatos Paradox 2020.x264.AMZN.WEBRip.1080p.Rus-Eng.kosmoaelita.mkv
Format                         : Matroska
Format version                 : Version 4
File size                      : 3.66 GiB
Duration                       : 1 h 56 min
Overall bit rate               : 4 500 kb/s
Encoded date                   : UTC 2020-12-21 16:13:45
Writing application            : mkvmerge v35.0.0 ('All The Love In The World') 64-bit
Writing library                : libebml v1.3.9 + libmatroska v1.5.2
Cover                          : Yes
Attachments                    : small_cover_land.jpg / cover.jpg / cover_land.jpg / small_cover.jpg
Video
ID                             : 1
Format                         : AVC
Format/Info                    : Advanced Video Codec
Format profile                 : High@L4
Format settings                : CABAC / 4 Ref Frames
Format settings, CABAC         : Yes
Format settings, Reference fra : 4 frames
Codec ID                       : V_MPEG4/ISO/AVC
Duration                       : 1 h 56 min
Bit rate                       : 4 082 kb/s
Width                          : 1 920 pixels
Height                         : 1 080 pixels
Display aspect ratio           : 16:9
Frame rate mode                : Constant
Frame rate                     : 24.000 FPS
Color space                    : YUV
Chroma subsampling             : 4:2:0
Bit depth                      : 8 bits
Scan type                      : Progressive
Bits/(Pixel*Frame)             : 0.082
Stream size                    : 3.32 GiB (91%)
Title                          : kosmoaelita
Language                       : English
Default                        : Yes
Forced                         : No
Color range                    : Limited
Color primaries                : BT.709
Transfer characteristics       : BT.709
Matrix coefficients            : BT.709
Audio #1
ID                             : 2
Format                         : AC-3
Format/Info                    : Audio Coding 3
Commercial name                : Dolby Digital
Codec ID                       : A_AC3
Duration                       : 1 h 56 min
Bit rate mode                  : Constant
Bit rate                       : 192 kb/s
Channel(s)                     : 2 channels
Channel layout                 : L R
Sampling rate                  : 48.0 kHz
Frame rate                     : 31.250 FPS (1536 SPF)
Compression mode               : Lossy
Stream size                    : 160 MiB (4%)
Title                          : Русский ЛО (den904)
Language                       : Russian
Service kind                   : Complete Main
Default                        : Yes
Forced                         : No
Audio #2
ID                             : 3
Format                         : E-AC-3
Format/Info                    : Enhanced AC-3
Commercial name                : Dolby Digital Plus
Codec ID                       : A_EAC3
Duration                       : 1 h 56 min
Bit rate mode                  : Constant
Bit rate                       : 224 kb/s
Channel(s)                     : 2 channels
Channel layout                 : L R
Sampling rate                  : 48.0 kHz
Frame rate                     : 31.250 FPS (1536 SPF)
Compression mode               : Lossy
Stream size                    : 187 MiB (5%)
Language                       : English
Service kind                   : Complete Main
Default                        : No
Forced                         : No
Text #1
ID                             : 4
Format                         : UTF-8
Codec ID                       : S_TEXT/UTF8
Codec ID/Info                  : UTF-8 Plain Text
Duration                       : 1 h 56 min
Bit rate                       : 101 b/s
Count of elements              : 1155
Stream size                    : 86.5 KiB (0%)
Title                          : Русские (Faer)
Language                       : Russian
Default                        : No
Forced                         : No
Text #2
ID                             : 5
Format                         : UTF-8
Codec ID                       : S_TEXT/UTF8
Codec ID/Info                  : UTF-8 Plain Text
Duration                       : 1 h 56 min
Bit rate                       : 65 b/s
Count of elements              : 1357
Stream size                    : 55.8 KiB (0%)
Language                       : English
Default                        : No
Forced                         : No

Скриншоты










[Profile] [PM]

Faer

Gender: Male

Longevity: 6 years 8 months

Posts: 687

Post 22-Dec-2020 02:31 (after 6 hours)

[Quote]

Я не знаю, почему на IMDB такой низкий рейтинг. Фильм действительно интересный. Я как увидел его - сразу понял: надо переводить. Один из лучших фильмов за 2020 год.
[Profile] [PM]

CROMAG

Gender: Male

Longevity: 6 years

Posts: 3675

Location: Прибалтика

Post 22-Dec-2020 08:02 (after 5 hours)

[Quote]

Ага Только раздал как немое кино Ржака
[Profile] [PM]

CROMAG

Gender: Male

Longevity: 6 years

Posts: 3675

Location: Прибалтика

Post 22-Dec-2020 14:55 (after 6 hours)

[Quote]

Флаер нивелируй матюги в следующий раз
[Profile] [PM]

Faer

Gender: Male

Longevity: 6 years 8 months

Posts: 687

Post 23-Dec-2020 02:47 (after 11 hours)

[Quote]

28664Флаер нивелируй матюги в следующий раз
Хорошо.
[Profile] [PM]
Quick Reply

Name:

            
Heads necessary to send messages to enable JavaScript
Display posts:    
Reply to topic

Current time is: 23-Sep 14:03

All times are UTC + 3



You cannot post new topics in this forum
You can reply to topics in this forum
You cannot edit your posts in this forum
You cannot delete your posts in this forum
You cannot vote in polls in this forum
You cannot attach files in this forum
You cannot download files in this forum