Прибытие / The Arrival (Дэвид Туи / David Twohy) [1996, США, Фантастика, BDRip-AVC] DVO Евразия Синема Трейд + DVO Twister + AVO Гаврилов + AVO Живов + Sub Rus + Original Eng

Reply to topic
 
Author Message

Guest ®

Gender: Unknown

Post 05-Nov-2012 04:07

[Quote]

Прибытие / The Arrival
Страна: США
Жанр: Фантастика
Год выпуска: 1996
Продолжительность: 01:55:40
Перевод 1: Профессиональный (двухголосый закадровый) Евразия Синема Трейд
Перевод 2: Профессиональный (двухголосый закадровый) Twister
Перевод 3: Авторский (одноголосый закадровый) А. Гаврилов (ранний)
Перевод 4: Авторский (одноголосый закадровый) А. Гаврилов (поздний)
Перевод 5: Авторский (одноголосый закадровый) Ю. Живов
Cубтитры: русские, английские
Оригинальная аудиодорожка: английский
Режиссер: Дэвид Туи / David Twohy
В ролях: Чарли Шин / Charlie Sheen, Линдсэй Краузе / Lindsay Crouse, Тери Поло / Teri Polo, Ричард Шифф / Richard Schiff, Леон Риппи / Leon Rippy, Тони Т. Джонсон / Tony T. Johnson, Рон Силвер / Ron Silver
Описание: Радиоастроном Зэйн Замински зафиксировал сигнал из космоса. Однако за совершенное Зэйном «открытие века» его начальник Гордиан увольняет своего сотрудника, из чего Замински делает вывод, что существует заговор с целью скрыть установление контакта с внеземной цивилизацией. В поисках доказательств своего предположения Зэйн самостоятельно обнаруживает сигнал и предположительное место расположения. В итоге он приезжает в мексиканскую провинцию, где знакомится с Иланой Грин, специалисткой в области прогноза погоды. Вместе они убеждаются в том, что столь долгожданный контакт с внеземной цивилизацией не только состоялся, но гости уже прибыли начав широкомасштабную подготовку к колонизации. Зэйн возвращается в Америку, чтобы дать знать о заговоре всему обществу.
Качество: BDRip-AVC
Формат: MKV
Видео: AVC 1136x614@23.976 fps ~2579 kBit/s
Аудио 1: AC3 448 kBit/s 5.1 DD 48 kHz Профессиональный (двухголосый закадровый) Евразия Синема Трейд
Аудио 2: AC3 192 kBit/s 2.0 DD 48 kHz Авторский (одноголосый закадровый) А. Гаврилов (Ранний)
Аудио 3: AC3 448 kBit/s 5.1 DD 48 kHz Оригинальная аудиодорожка: английский
_____________________________________________отдельно_____________________________________________
Аудио 4: AC3 448 kBit/s 5.1 DD 48 kHz Профессиональный (двухголосый закадровый) Twister
Аудио 5: AC3 448 kBit/s 5.1 DD 48 kHz Авторский (одноголосый закадровый) А. Гаврилов (поздний)
Аудио 6: AC3 448 kBit/s 5.1 DD 48 kHz Авторский (одноголосый закадровый) Ю. Живов
Субтитры : русские, английские


Релиз

undre19
Звуковые дорожки с переводом Евразия Синема Трейд, А. Гаврилов и субтитры взяты из DVD9
Дорожка с ранним переводом Гаврилова предоставлена Синта Рурони

Дополнительно

Главный герой культовой компьютерной игры «Half-Life» Гордон Фримен внешне очень похож на героя Чарли Шина в фильме.
Название первой главы компьютерной игры "Half-LIfe 2" похоже на название фильма.
Инопланетяне весьма сильно отличаются от своего стереотипного образа: имеют достаточно высокий рост и развитую рельефную мускулатуру, пальцеходящие ноги, общаются друг с другом при помощи речи и явно не владеют телепатией, голоса их примерно человеческого тембра, лица имеют пропорции, тоже схожие с человеческими.

Рецензия

MediaInfo

General
Unique ID : 205709248504392615686563673950718590835 (0x9AC228FFCCD679D6AAF8DF746A10FF73)
Complete name : F:\FILMS\___ - R - ___\The Arrival\The Arrival.mkv
Format : Matroska
Format version : Version 2
File size : 2.96 GiB
Duration : 1h 55mn
Overall bit rate : 3 667 Kbps
Encoded date : UTC 2012-06-27 15:29:27
Writing application : mkvmerge v3.3.0 ('Language') строится на Apr 12 2010 10:07:49
Writing library : libebml v0.8.0 + libmatroska v0.9.0
Video
ID : 1
Format : AVC
Format/Info : Advanced Video Codec
Format profile : High@L4.1
Format settings, CABAC : Yes
Format settings, ReFrames : 11 frames
Codec ID : V_MPEG4/ISO/AVC
Duration : 1h 55mn
Bit rate : 2 579 Kbps
Width : 1 136 pixels
Height : 614 pixels
Display aspect ratio : 1.85:1
Frame rate : 23.976 fps
Color space : YUV
Chroma subsampling : 4:2:0
Bit depth : 8 bits
Scan type : Progressive
Bits/(Pixel*Frame) : 0.154
Stream size : 2.03 GiB (68%)
Title : AVC 1136x614@23.976 fps ~2579 kBit/s 2-pass High 4.1
Writing library : x264 core 115 r2008bm 4c552d8
Encoding settings : cabac=1 / ref=11 / deblock=1:-2:-2 / analyse=0x3:0x133 / me=umh / subme=10 / psy=1 / psy_rd=1.00:0.05 / mixed_ref=1 / me_range=32 / chroma_me=1 / trellis=2 / 8x8dct=1 / cqm=0 / deadzone=21,11 / fast_pskip=0 / chroma_qp_offset=-3 / threads=6 / sliced_threads=0 / nr=0 / decimate=0 / interlaced=0 / bluray_compat=0 / constrained_intra=0 / bframes=8 / b_pyramid=2 / b_adapt=2 / b_bias=0 / direct=3 / weightb=1 / open_gop=0 / weightp=2 / keyint=250 / keyint_min=23 / scenecut=40 / intra_refresh=0 / rc=2pass / mbtree=0 / bitrate=2579 / ratetol=1.0 / qcomp=0.90 / qpmin=0 / qpmax=69 / qpstep=4 / cplxblur=20.0 / qblur=0.5 / ip_ratio=1.40 / pb_ratio=1.30 / aq=2:0.85
Language : English
Default : Yes
Forced : No
Audio #1
ID : 2
Format : AC-3
Format/Info : Audio Coding 3
Mode extension : CM (complete main)
Format settings, Endianness : Big
Codec ID : A_AC3
Duration : 1h 55mn
Bit rate mode : Constant
Bit rate : 448 Kbps
Channel(s) : 6 channels
Channel positions : Front: L C R, Side: L R, LFE
Sampling rate : 48.0 KHz
Bit depth : 16 bits
Compression mode : Lossy
Stream size : 371 MiB (12%)
Title : DVO R5 Евразия Синема Трейд AC3 448 kBit/s 5.1 DD 48 kHz
Language : Russian
Default : Yes
Forced : No
Audio #2
ID : 3
Format : AC-3
Format/Info : Audio Coding 3
Mode extension : CM (complete main)
Format settings, Endianness : Big
Codec ID : A_AC3
Duration : 1h 55mn
Bit rate mode : Constant
Bit rate : 192 Kbps
Channel(s) : 2 channels
Channel positions : Front: L R
Sampling rate : 48.0 KHz
Bit depth : 16 bits
Compression mode : Lossy
Stream size : 159 MiB (5%)
Title : Гаврилов (ранний) AC3 192 kBit/s 2.0 48 kHz
Language : Russian
Default : No
Forced : No
Audio #3
ID : 4
Format : AC-3
Format/Info : Audio Coding 3
Mode extension : CM (complete main)
Format settings, Endianness : Big
Codec ID : A_AC3
Duration : 1h 55mn
Bit rate mode : Constant
Bit rate : 448 Kbps
Channel(s) : 6 channels
Channel positions : Front: L C R, Side: L R, LFE
Sampling rate : 48.0 KHz
Bit depth : 16 bits
Compression mode : Lossy
Stream size : 371 MiB (12%)
Title : AC3 448 kBit/s 5.1 DD 48 kHz
Language : English
Default : No
Forced : No
Text #1
ID : 5
Format : UTF-8
Codec ID : S_TEXT/UTF8
Codec ID/Info : UTF-8 Plain Text
Language : Russian
Default : Yes
Forced : No
Text #2
ID : 6
Format : UTF-8
Codec ID : S_TEXT/UTF8
Codec ID/Info : UTF-8 Plain Text
Language : English
Default : No
Forced : No

Пример субтитров

cd Второй фильм дилогии "Прибытие: Новая угроза / Второе пришествие / The Second Arrival" cd2


Last edited by Guest on 2012-11-05 08:45; edited 1 time in total
 

admin

Gender: Male

Longevity: 7 years 2 months

Posts: 4723

Post 05-Nov-2012 04:59 (after 51 minute)

[Quote]

Спасибо.Добавил
http://www.kosmoaelita.com/viewtopic.php?t=145
Вы неправильно создали торрент - добавлять http://www.kosmoaelita.com/tracker.php не надо.
Теперь пишет: трекер отправляет неверные данные null
и может не считать статистику.
Оставляете там пустое поле.Трекер сам добавит нужную инфу

Попробуйте перезалитьть новый торрент
[Profile] [PM]

Guest ®

Gender: Unknown

Post 05-Nov-2012 08:55 (after 3 hours)

[Quote]

давно не создавал торренты, забыл смайлик-
перезалил
 

admin

Gender: Male

Longevity: 7 years 2 months

Posts: 4723

Post 05-Nov-2012 12:17 (after 3 hours)

[Quote]

Теперь все хорошо
[Profile] [PM]
Quick Reply

Name:

            
Heads necessary to send messages to enable JavaScript
Display posts:    
Reply to topic

Current time is: 17-Nov 18:06

All times are UTC + 3



You cannot post new topics in this forum
You can reply to topics in this forum
You cannot edit your posts in this forum
You cannot delete your posts in this forum
You cannot vote in polls in this forum
You cannot attach files in this forum
You cannot download files in this forum