Гор / Gor / (John 'Bud' Cardos, Fritz Kiersch) [1987, США, фантастика, фэнтези, боевик, BDRip-1080p] АО (c VHS)

Reply to topic
DL-List and Torrent activity
Size:  1.95 GB   |    Registered:  9 months 25 days   |    Completed:  5 times

Seeders:

Username ULR UL DL UL speed DL speed
pompilius 0 0- 0- 0- 0-
shows data only for the current session
 
   
 
 
 
Author Message

kosmoaelita ®

Gender: Male

Longevity: 9 years

Posts: 1768

Post 02-Dec-2020 02:48

[Quote]

Гор / Gor
Страна: США, Cannon Films
Жанр: фантастика, фэнтези, боевик
Год выпуска: 1987
Продолжительность: 01:34:51
Перевод: Авторский (одноголосый)
Режиссер: Фриц Кирш / Fritz Kiersch
В ролях:
Urbano Barberini ... Tarl Cabot
Rebecca Ferratti ... Talena
Jack Palance ... Xenos
Paul L. Smith ... Surbus
Oliver Reed ... Sarm
Larry Taylor ... King Marlenus
Graham Clarke ... Drusus
Janine Denison ... Brandy
Donna Denton ... Queen Lara
Jenifer Oltman ... Tafa (as Jennifer Oltmann)
Martina Brockschmidt ... Dorna
Anne Power ... Beverly (as Ann Power)
Arnold Vosloo ... Norman
Chris du Plessis ... Sarsam
Ivan Kruger ... Sarm's Rider
Описание: Первая часть экранизации романов Джона Нормана. Американский профессор Тэрл Кэбот оказывается на планете Гор — близнеце нашей Земли, вращающейся вокруг Солнца по той же орбите, но с противоположной стороны…
Качество: BDRip-1080p
Формат: MKV
Видео: x264, 2500 кбит/с, 1920x1018, 23.976 к/с
Аудио 1: Русский АО (c VHS)(AC3, 2 ch, 192 Кбит/с)
Аудио 2: Английский (AC3, 2 ch, 256 Кбит/с)
Работа над релизом:
Видеоряд найден на rarbg2018
Синхронизация русской дорожки - kosmoaelita
Длинные муз. фрагменты заменены более качеств. с англ. дорожки



Пример русской озвучки

Дополнительно

Also Known As (AKA) Brazil Gor E os Guerreiros Selvagens
Finland Gor - tuhon tähti
France Gor
USA (complete title) John Norman's Gor
West Germany (video title) Gor

Отзывы

Медиа-инфо

Общее
Уникальный идентификатор : 195860173573960699790374267451646087242 (0x93594C1D282322A38CAF3D755FD3104A)
Полное имя : F:\Gor Outlaw Of Gor 1987-89 VHSRip kosmoaelita\Gor 1987.x264.BDRip.1080p.Rus.kosmoaelita.mkv
Формат : Matroska
Версия формата : Version 4
Размер файла : 1,95 Гбайт
Продолжительность : 1 ч. 34 м.
Общий поток : 2949 Кбит/сек
Дата кодирования : UTC 2020-12-01 02:22:15
Программа кодирования : mkvmerge v6.6.0 ('The Edge Of The In Between') built on Dec 1 2013 17:55:00
Библиотека кодирования : libebml v1.3.0 + libmatroska v1.4.1
Видео
Идентификатор : 1
Формат : AVC
Формат/Информация : Advanced Video Codec
Профиль формата : High@L4.1
Настройки формата : CABAC / 4 Ref Frames
Параметр CABAC формата : Да
Параметр RefFrames формата : 4 кадра
Идентификатор кодека : V_MPEG4/ISO/AVC
Продолжительность : 1 ч. 34 м.
Битрейт : 2500 Кбит/сек
Ширина : 1920 пикселей
Высота : 1018 пикселей
Соотношение сторон : 1,886
Режим частоты кадров : Постоянный
Частота кадров : 23,976 (23976/1000) кадра/сек
Цветовое пространство : YUV
Субдискретизация насыщенности : 4:2:0
Битовая глубина : 8 бит
Тип развёртки : Прогрессивная
Бит/(Пиксели*Кадры) : 0.053
Размер потока : 1,62 Гбайт (83%)
Библиотека кодирования : x264 core 152 r2851M ba24899
Настройки программы : cabac=1 / ref=4 / deblock=1:-1:-1 / analyse=0x3:0x113 / me=umh / subme=9 / psy=1 / psy_rd=1.00:0.15 / mixed_ref=1 / me_range=24 / chroma_me=1 / trellis=2 / 8x8dct=1 / cqm=0 / deadzone=21,11 / fast_pskip=1 / chroma_qp_offset=-3 / threads=16 / lookahead_threads=4 / sliced_threads=0 / nr=0 / decimate=1 / interlaced=0 / bluray_compat=0 / constrained_intra=0 / bframes=3 / b_pyramid=2 / b_adapt=2 / b_bias=0 / direct=3 / weightb=1 / open_gop=0 / weightp=2 / keyint=250 / keyint_min=25 / scenecut=40 / intra_refresh=0 / rc_lookahead=50 / rc=2pass / mbtree=1 / bitrate=2500 / ratetol=1.0 / qcomp=0.60 / qpmin=0 / qpmax=69 / qpstep=4 / cplxblur=20.0 / qblur=0.5 / vbv_maxrate=31250 / vbv_bufsize=31250 / nal_hrd=none / filler=0 / ip_ratio=1.40 / aq=3:1.00
Default : Да
Forced : Нет
Аудио #1
Идентификатор : 2
Формат : AC-3
Формат/Информация : Audio Coding 3
Коммерческое название : Dolby Digital
Идентификатор кодека : A_AC3
Продолжительность : 1 ч. 34 м.
Вид битрейта : Постоянный
Битрейт : 192 Кбит/сек
Каналы : 2 канала
ChannelLayout : L R
Частота : 48,0 КГц
Частота кадров : 31,250 кадров/сек (1536 SPF)
Метод сжатия : С потерями
Задержка видео : -43 мс.
Размер потока : 130 Мбайт (7%)
Язык : Russian
ServiceKind/String : Complete Main
Default : Да
Forced : Нет
Аудио #2
Идентификатор : 3
Формат : AC-3
Формат/Информация : Audio Coding 3
Коммерческое название : Dolby Digital
Идентификатор кодека : A_AC3
Продолжительность : 1 ч. 34 м.
Вид битрейта : Постоянный
Битрейт : 256 Кбит/сек
Каналы : 2 канала
ChannelLayout : L R
Частота : 48,0 КГц
Частота кадров : 31,250 кадров/сек (1536 SPF)
Метод сжатия : С потерями
Задержка видео : -43 мс.
Размер потока : 174 Мбайт (9%)
Язык : English
ServiceKind/String : Complete Main
Default : Нет
Forced : Нет

Скриншоты












Скринлист

cd Рип дополнительно залит на mail.ru cd2
Gor 1987.x264.BDRip.1080p.Rus.kosmoaelita.mkv.torrent
Torrent: Registered [ 2020-12-02 02:53 ]

Download .torrent

Download

20 KB

Status: checked
Completed: 5 times
Size: 1.95 GB
 


Last edited by kosmoaelita on 2020-12-02 03:13; edited 3 times in total
[Profile] [PM]

kosmoaelita ®

Gender: Male

Longevity: 9 years

Posts: 1768

Post 02-Dec-2020 02:56 (after 7 minutes)

[Quote]

Качество не ахти. Получше VHS, но на HD совершенно не тянет.
Кроме того, по новой моде по горизонтали обрезали треть картинки (по сравнению с VHS)
http://kosmoaelita.com/viewtopic.php?t=1508

[Profile] [PM]
Display posts:    
Reply to topic

Current time is: 27-Sep 14:08

All times are UTC + 3



You cannot post new topics in this forum
You cannot reply to topics in this forum
You cannot edit your posts in this forum
You cannot delete your posts in this forum
You cannot vote in polls in this forum
You cannot attach files in this forum
You can download files in this forum