Пи-мен / P-man (1-12 из 15) + (1sp) [1996-2004, Япония, токусацу, фантастика, DVDRip] СТ (eng), СТ (Mr.Faer)

Reply to topic
DL-List and Torrent activity
Size:  871 MB   |    Registered:  1 month 11 days   |    Completed:  0 times

Seeders:

Username ULR UL DL UL speed DL speed
pompilius 0 0- 0- 0- 0-
shows data only for the current session
 
   
 
 
 
Author Message

Faer ®

Gender: Male

Longevity: 6 years 1 month

Posts: 531

Post 28-Nov-2020 14:39

[Quote]

Пи-мен / P-man
Страна: Япония
Жанр: токусацу, фантастика
Год выпуска: 1996-2004
Продолжительность: 12 х 00:05:05 + промо 00:03:40
Перевод: Субтитры
Cубтитры: английские, русские
Режиссер: Хатате Минору, Шуньичиро Комами, Рюки Эбина, Говаку Сакатору
В ролях: Неизвестно
Описание: Сын гениального учёного превращается в Пи-мена, что бы спасти изобретение своего покойного отца - машину времени, от злобной организации "Ф-группа".
Сериал снимался с 1996 по 2004 год, каждая серия идёт около 5 минут. Кроме этого (и автора оригинала), о сериале неизвестно ничего. Только на бразильской токусацу-вики есть внятное описание, и Rare Tokusatsu (авторы рипа) предоставили одну-единственную обложку для DVD.

Видеоряд предоставлен Rare Tokusatsu
Перевод: Mr.Faer
Редакция: Laman
Спонсор перевода: Tokufan inc.

Качество видео: DVDRip
Формат видео: MKV
Видео: AVC, 640х480, 29,970fps, 1502 Кбит/с
Аудио:AAC, 48,0 КГц, 132 Кбит/с, стерео
Формат субтитров: софтсаб (английские), софтсаб (русские)

Скриншоты




MediaInfo

Общее
Уникальный идентификатор : 130646095031517069136665626715012598771 (0x624985CCA4775ACDD493DC4E68960BF3)
Полное имя : C:\Users\Win10Pro\Desktop\P-Man Pilot.mkv
Формат : Matroska
Версия формата : Version 4
Размер файла : 43,1 Мбайт
Продолжительность : 3 м. 40 с.
Общий поток : 1640 Кбит/сек
Дата кодирования : UTC 2020-11-28 11:26:11
Программа кодирования : mkvmerge v46.0.0 ('No Deeper Escape') 64-bit
Библиотека кодирования : libebml v1.3.10 + libmatroska v1.5.2
Видео
Идентификатор : 1
Формат : AVC
Формат/Информация : Advanced Video Codec
Профиль формата : High@L3.1
Настройки формата : CABAC / 5 Ref Frames
Параметр CABAC формата : Да
Параметр RefFrames формата : 5 кадров
Идентификатор кодека : V_MPEG4/ISO/AVC
Продолжительность : 3 м. 40 с.
Битрейт : 1502 Кбит/сек
Ширина : 640 пикселей
Высота : 480 пикселей
Соотношение сторон : 4:3
Режим частоты кадров : Постоянный
Частота кадров : 29,970 (30000/1001) кадров/сек
Цветовое пространство : YUV
Субдискретизация насыщенности : 4:2:0
Битовая глубина : 8 бит
Тип развёртки : Прогрессивная
Бит/(Пиксели*Кадры) : 0.163
Размер потока : 39,5 Мбайт (92%)
Библиотека кодирования : x264 core 148 r2708 86b7198
Настройки программы : cabac=1 / ref=5 / deblock=1:0:0 / analyse=0x3:0x133 / me=umh / subme=10 / psy=1 / psy_rd=1.00:0.00 / mixed_ref=1 / me_range=24 / chroma_me=1 / trellis=2 / 8x8dct=1 / cqm=0 / deadzone=21,11 / fast_pskip=1 / chroma_qp_offset=-2 / threads=6 / lookahead_threads=1 / sliced_threads=0 / nr=0 / decimate=1 / interlaced=0 / bluray_compat=0 / constrained_intra=0 / bframes=5 / b_pyramid=2 / b_adapt=2 / b_bias=0 / direct=3 / weightb=1 / open_gop=0 / weightp=2 / keyint=300 / keyint_min=30 / scenecut=40 / intra_refresh=0 / rc_lookahead=60 / rc=crf / mbtree=1 / crf=20.0 / qcomp=0.60 / qpmin=0 / qpmax=69 / qpstep=4 / vbv_maxrate=17500 / vbv_bufsize=17500 / crf_max=0.0 / nal_hrd=none / filler=0 / ip_ratio=1.40 / aq=1:1.00
Default : Да
Forced : Нет
Цветовой диапазон : Limited
Основные цвета : BT.601 NTSC
Характеристики трансфера : BT.709
Коэффициенты матрицы : BT.601
Аудио
Идентификатор : 2
Формат : AAC LC
Формат/Информация : Advanced Audio Codec Low Complexity
Идентификатор кодека : A_AAC-2
Продолжительность : 3 м. 40 с.
Битрейт : 132 Кбит/сек
Каналы : 2 канала
ChannelLayout : L R
Частота : 48,0 КГц
Частота кадров : 46,875 кадров/сек (1024 SPF)
Метод сжатия : С потерями
Размер потока : 3,53 Мбайт (8%)
Default : Да
Forced : Нет
Текст #1
Идентификатор : 3
Формат : ASS
Идентификатор кодека : S_TEXT/ASS
Идентификатор кодека/Информация : Advanced Sub Station Alpha
Продолжительность : 3 м. 34 с.
Битрейт : 111 бит/сек
ElementCount : 49
Метод сжатия : Без потерь
Размер потока : 2,91 Кбайт (0%)
Язык : English
Default : Да
Forced : Нет
Текст #2
Идентификатор : 4
Формат : ASS
Идентификатор кодека : S_TEXT/ASS
Идентификатор кодека/Информация : Advanced Sub Station Alpha
Продолжительность : 3 м. 34 с.
Битрейт : 154 бит/сек
ElementCount : 49
Метод сжатия : Без потерь
Размер потока : 4,03 Кбайт (0%)
Язык : Russian
Default : Нет
Forced : Нет
cd Рип дополнительно залит на облако cd2
P-Man.torrent
 GOLD TORRENT! DOWNLOAD TRAFFIC DOES NOT CONSIDER! 
Torrent: Registered [ 2021-01-15 05:04 ]

Download .torrent

Download

35 KB

Status: checked
Completed: 0 times
Size: 871 MB
 


Last edited by Faer on 2021-01-15 05:04; edited 17 times in total
[Profile] [PM]

Faer ®

Gender: Male

Longevity: 6 years 1 month

Posts: 531

Post 28-Nov-2020 14:44 (after 4 minutes)

[Quote]

Если токуфан проспонсирует (или если будет интерес), переведу ещё. Рипы есть на первые пять серий.

Камен Райдер

*Райдер ждёт, когда у нашего озвучальщика появится нормальный микрофон.
[Profile] [PM]

Faer ®

Gender: Male

Longevity: 6 years 1 month

Posts: 531

Post 29-Nov-2020 10:32 (after 19 hours)

[Quote]

Оплачено две серии (спасибо Tokufan inc).
Добавлена первая серия.
[Profile] [PM]

Трамвай-фильм

Gender: Male

Longevity: 6 years 6 months

Posts: 1895

Location: Россия

Post 29-Nov-2020 13:03 (after 2 hours 30 minutes)

[Quote]

Я думал я видел всё, но это...
[Profile] [PM]

Faer ®

Gender: Male

Longevity: 6 years 1 month

Posts: 531

Post 29-Nov-2020 13:21 (after 18 minutes)

[Quote]

28512Я думал я видел всё, но это...
Это независимое кино Японии. Я на том же бразильском сайте узнал, что это "independent film", который даже издали на DVD за деньги немногочисленных фанатов.
У него ещё и продолжение есть, часовой фильм.
[Profile] [PM]

Трамвай-фильм

Gender: Male

Longevity: 6 years 6 months

Posts: 1895

Location: Россия

Post 29-Nov-2020 13:32 (after 10 minutes)

[Quote]

Уж больно "независимое"
[Profile] [PM]

Faer ®

Gender: Male

Longevity: 6 years 1 month

Posts: 531

Post 01-Dec-2020 14:08 (after 2 days)

[Quote]

Добавлена вторая серия.
[Profile] [PM]

Faer ®

Gender: Male

Longevity: 6 years 1 month

Posts: 531

Post 02-Dec-2020 10:43 (after 20 hours)

[Quote]

Добавлена четвёртая серия.

Почему не третья

Правила существуют, что бы их нарушать.
Третья на редактировании ещё.
[Profile] [PM]

Faer ®

Gender: Male

Longevity: 6 years 1 month

Posts: 531

Post 05-Dec-2020 02:31 (after 2 days 15 hours)

[Quote]

Добавлены серии № 3, 5, 7.
Интерес появился. Всяко проще чем полнометражные фильмы переводить.
[Profile] [PM]

CROM@G

Gender: Male

Longevity: 5 years 5 months

Posts: 3589

Location: Прибалтика

Post 05-Dec-2020 07:27 (after 4 hours)

[Quote]

С полнометражек сдулся ?
[Profile] [PM]

Faer ®

Gender: Male

Longevity: 6 years 1 month

Posts: 531

Post 05-Dec-2020 08:36 (after 1 hour 9 minutes)

[Quote]

28544С полнометражек сдулся ?
Я взял одну, пилю потихоньку. Примерно в январе будет.
Хочу добить Пи-мена (сериал весь), Камен Райдера хотя бы до 20 серии, и ещё Маску (хотя бы серию). После этого опять на полнометражки сяду.
[Profile] [PM]

CROM@G

Gender: Male

Longevity: 5 years 5 months

Posts: 3589

Location: Прибалтика

Post 05-Dec-2020 08:58 (after 21 minute)

[Quote]

Из этого списка http://www.kosmoaelita.com/viewtopic.php?t=2548?
[Profile] [PM]

Faer ®

Gender: Male

Longevity: 6 years 1 month

Posts: 531

Post 05-Dec-2020 10:44 (after 1 hour 46 minutes)

[Quote]

28546Из этого списка http://www.kosmoaelita.com/viewtopic.php?t=2548 ?
Да.
[Profile] [PM]

Faer ®

Gender: Male

Longevity: 6 years 1 month

Posts: 531

Post 06-Dec-2020 04:19 (after 17 hours)

[Quote]

Добавлена шестая серия.
[Profile] [PM]

Faer ®

Gender: Male

Longevity: 6 years 1 month

Posts: 531

Post 18-Dec-2020 11:57 (after 12 days)

[Quote]

Добавлена восьмая серия.
Свершилось сразу три вещи:
1. Я осилил более половины сериала
2. Восьмая серия - первая серия этого тысячелетия (снята в 2000 году)
3. Мы узнали режиссёра этого сериала. Им оказался Хатате Минору.
[Profile] [PM]

Faer ®

Gender: Male

Longevity: 6 years 1 month

Posts: 531

Post 20-Dec-2020 09:49 (after 1 day 21 hour)

[Quote]

Добавлена девятая серия.
3. Мы узнали режиссёра этого сериала. Им оказался Хатате Минору.
Режиссёры тут оказывается посерийно, а не один на весь сериал.
[Profile] [PM]

Faer ®

Gender: Male

Longevity: 6 years 1 month

Posts: 531

Post 30-Dec-2020 22:58 (after 10 days)

[Quote]

Добавлена десятая серия.
[Profile] [PM]

Faer ®

Gender: Male

Longevity: 6 years 1 month

Posts: 531

Post 13-Jan-2021 03:54 (after 13 days)

[Quote]

Добавлена одиннадцатая серия.
[Profile] [PM]

Faer ®

Gender: Male

Longevity: 6 years 1 month

Posts: 531

Post 15-Jan-2021 05:04 (after 2 days 1 hour)

[Quote]

Добавлена двенадцатая серия.
[Profile] [PM]
Display posts:    
Reply to topic

Current time is: 26-Feb 09:07

All times are UTC + 3



You can post new topics in this forum
You cannot reply to topics in this forum
You cannot edit your posts in this forum
You cannot delete your posts in this forum
You cannot vote in polls in this forum
You cannot attach files in this forum
You can download files in this forum