Повелитель клонов / The Clone Master [pilot] (Дон Медфорд) [1978, США, фантастика, TVRip] АО (Трамвай-фильм)

Reply to topic
DL-List and Torrent activity
Size:  931 MB   |    Registered:  11 days   |    Completed:  3 times

Seeders:

Username ULR UL DL UL speed DL speed
pompilius 0 0- 0- 0- 0-
shows data only for the current session
 
   
 
 
 
Author Message

Трамвай-фильм ®

Gender: Male

Longevity: 6 years 3 months

Posts: 1883

Location: Россия

Post 19-Nov-2020 23:12

[Quote]

Повелитель клонов / The Clone Master (pilot)
Страна: США, Mel Ferber Productions, Paramount Television
Жанр: фантастика
Год выпуска: 1978
Продолжительность: 01:32:26
Перевод: Авторский (одноголосый) Трамвай-фильм
Режиссер: Дон Медфорд
В ролях:
Art Hindle ... Dr. Simon Shane
Robyn Douglass ... Gussie
John Van Dreelen ... Salt
Ed Lauter ... Bender
Mario Roccuzzo ... Harry Tiezer
Ralph Bellamy ... Ezra Louthin
Stacy Keach Sr. ... Adm. Millus
Lew Brown ... Fire Chief
Bill Sorrells ... Interviewer
Robert Karnes ... Trankus
Betty Lou Robinson ... Alba Toussaint
Vernon Weddle ... Pine
Ken Sansom ... Wainer
Steve Eastin ... Huberman
Phillip Pine ... Navy Cmdr. Tiller
Описание: Доктор Шейн и доктор Лютен проводят засекреченные эксперименты по клонированию человека, которые финансирует связной правительства, приносящий крупную сумму денег наличными. Эксперимент продвигается удачно, до тех пор пока к ученым не приходит полицейский детектив, сообщая, что связной был едва не убит нервно-паралитическим газом...
Доп. информация: Пилотный фильм, так и не ставший сериалом.
Качество видео: TVRip
Формат: MKV
Видео: XviD, 996 кбит/с, 608x448, 25 к/с
Аудио 1: Русский АО (AC3, 2 ch, 192 Кбит/с)
Аудио 2: Английский (AC3, 2 ch, 192 Кбит/с)
Работа над релизом:
Релиз kosmoaelita.com
Видеоряд найден на синемагеддоне.
Авторский перевод - Трамвай-фильм



Пример русского перевода

MediaInfo

Общее
Уникальный идентификатор : 194554886687333022008599572381305547876 (0x925DE8806FFD04B6ADA26B9056BA2C64)
Полное имя : The Clone Master 1978.XviD.TVRip.Rus.kosmoaelita.mkv
Формат : Matroska
Версия формата : Version 4
Размер файла : 931 Мбайт
Продолжительность : 1 ч. 32 м.
Общий поток : 1408 Кбит/сек
Название фильма : Повелитель клонов / The Clone Master (pilot) / 1978 / Релиз kosmoaelita
Дата кодирования : UTC 2020-11-20 01:02:31
Программа кодирования : mkvmerge v6.6.0 ('The Edge Of The In Between') built on Dec 1 2013 17:55:00
Библиотека кодирования : libebml v1.3.0 + libmatroska v1.4.1
Attachments : poster.jpg
Видео
Идентификатор : 1
Формат : MPEG-4 Visual
Профиль формата : Simple@L3
Параметр BVOP формата : Нет
Параметр QPel формата : Нет
Параметр GMC формата : Без точки перехода
Параметр матрицы формата : Default (H.263)
Идентификатор кодека : V_MS/VFW/FOURCC / XVID
Идентификатор кодека/Подсказка : XviD
Продолжительность : 1 ч. 32 м.
Битрейт : 996 Кбит/сек
Ширина : 608 пикселей
Высота : 448 пикселей
Соотношение сторон : 4:3
Режим частоты кадров : Постоянный
Частота кадров : 25,000 кадров/сек
Цветовое пространство : YUV
Субдискретизация насыщенности : 4:2:0
Битовая глубина : 8 бит
Тип развёртки : Прогрессивная
Метод сжатия : С потерями
Бит/(Пиксели*Кадры) : 0.146
Размер потока : 659 Мбайт (71%)
Заголовок : http://kosmoaelita.com/viewtopic.php?t=3159
Библиотека кодирования : XviD 1.0.2 (UTC 2004-08-29)
Default : Да
Forced : Нет
Аудио #1
Идентификатор : 2
Формат : AC-3
Формат/Информация : Audio Coding 3
Коммерческое название : Dolby Digital
Идентификатор кодека : A_AC3
Продолжительность : 1 ч. 32 м.
Вид битрейта : Постоянный
Битрейт : 192 Кбит/сек
Каналы : 2 канала
ChannelLayout : L R
Частота : 48,0 КГц
Частота кадров : 31,250 кадров/сек (1536 SPF)
Метод сжатия : С потерями
Размер потока : 127 Мбайт (14%)
Заголовок : Русский АО (Трамвай-фильм)
Язык : Russian
ServiceKind/String : Complete Main
Default : Да
Forced : Нет
Аудио #2
Идентификатор : 3
Формат : AC-3
Формат/Информация : Audio Coding 3
Коммерческое название : Dolby Digital
Идентификатор кодека : A_AC3
Продолжительность : 1 ч. 32 м.
Вид битрейта : Постоянный
Битрейт : 192 Кбит/сек
Каналы : 2 канала
ChannelLayout : L R
Частота : 48,0 КГц
Частота кадров : 31,250 кадров/сек (1536 SPF)
Метод сжатия : С потерями
Размер потока : 127 Мбайт (14%)
Язык : English
ServiceKind/String : Complete Main
Default : Нет
Forced : Нет

Скриншоты
















Скринлист

Файл дополнительно залит на ОБЛАКО
The Clone Master 1978.XviD.TVRip.Rus.kosmoaelita.mkv.torrent
Torrent: Registered [ 2020-11-21 03:24 ]

Download .torrent

Download

9 KB

Status: checked
Completed: 3 times
Size: 931 MB
 
[Profile] [PM]

kosmoaelita

Gender: Male

Longevity: 8 years 3 months

Posts: 1710

Post 20-Nov-2020 04:07 (after 4 hours)

[Quote]

Замена на более полную и качественную версию.


Last edited by kosmoaelita on 2020-11-21 03:06; edited 1 time in total
[Profile] [PM]

Трамвай-фильм ®

Gender: Male

Longevity: 6 years 3 months

Posts: 1883

Location: Россия

Post 20-Nov-2020 09:05 (after 4 hours)

[Quote]

28459Замена на более полную и качественную версию.
https://dropmefiles.com/ONra0 - чистый голос к полнометражке (ТВ-рип), на всякий случай
https://dropmefiles.com/dBwpx - голос и фрагмент с видео (для лучшего понимания) на неозвучанные моменты с DVD версии.
Как интересно, после появления полной версии стали ясны некоторые места, которые ранее были непонятны, например причем тут "дети" в разговоре по телефону Лютена и Шейна (хотя можно догадаться, что речь о клонах). Или с чего вдруг Лютен пригласил Гасси на пикник
[Profile] [PM]

kosmoaelita

Gender: Male

Longevity: 8 years 3 months

Posts: 1710

Post 21-Nov-2020 03:07 (after 18 hours)

[Quote]

Добавлен перевод недостающих фрагментов
[Profile] [PM]

Трамвай-фильм ®

Gender: Male

Longevity: 6 years 3 months

Posts: 1883

Location: Россия

Post 21-Nov-2020 13:59 (after 10 hours)

[Quote]

28463Добавлен перевод недостающих фрагментов
Спасибо.
Фильм относительно не плох, чем-то напомнил другой пилот: Экзо-мен / Exo-Man (даже типаж героя там такой же)
[Profile] [PM]
Display posts:    
Reply to topic

Current time is: 03-Dec 00:27

All times are UTC + 3



You cannot post new topics in this forum
You cannot reply to topics in this forum
You cannot edit your posts in this forum
You cannot delete your posts in this forum
You cannot vote in polls in this forum
You cannot attach files in this forum
You can download files in this forum