Чудовищный снежный человек / Half Human: the Story of Abominable Snowman / Jû jin yuki otoko (Исиро Хонда) [1955, Япония, ужасы, триллер, VHSRip] (СТ : AdmiralPiett) (СТ : Английские) (Sub Rus)

Reply to topic
 
Author Message

Faer ®

Gender: Male

Longevity: 6 years 8 months

Posts: 687

Post 11-Nov-2020 09:14

[Quote]

Чудовищный снежный человек / Half Human: the Story of Abominable Snowman
Страна: Япония
Жанр: ужасы, триллер
Год выпуска: 1955
Продолжительность: 01:37:39
Перевод 1: Субтитры AdmiralPiett
Перевод 2: Субтитры Английские
Cубтитры: русские, английские
Режиссер: Исиро Хонда
В ролях: Акира Такарада, Акеми Негиси, Момоко Коти, Сатио Сакаи, Нобуо Накамура.
Описание: Репортёр из газеты прибывает в клуб альпинистов, чтобы взять интервью у участников странного инцидента. Они, в свою очередь, рассказывают ему историю о том, как двое студентов пропали во время снежной бури, а остальные отправились на их поиски и столкнулись с рядом таинственных происшествий. Многое повстречалось им на пути: и корыстные браконьеры, и всеми забытая горная деревушка со своими правилами и обычаями, ну и конечно же сам снежный человек...


Видеоряд найден на rarbg
В отличии от рутрекера, тут чуть выше качество видео, и не замазан хронометраж.

Качество видео: VHSRip
Формат видео: MKV
Видео: MPEG4, 718*480, 4:3, 29.97 fps, 1521 Кбит/с
Аудио 1: AAC, 48,0 КГц, 192 Кбит/с, стерео
Формат субтитров: softsub (SRT)

MediaInfo

Общее
Уникальный идентификатор : 132694425617255542943835021285275238597 (0x63D4044B5D059B8133227EE107D480C5)
Полное имя : D:\Ju Jin Yuki Otoko (1955).mkv
Формат : Matroska
Версия формата : Version 4
Размер файла : 1,17 Гбайт
Продолжительность : 1 ч. 37 м.
Общий поток : 1717 Кбит/сек
Дата кодирования : UTC 2020-11-11 06:06:22
Программа кодирования : mkvmerge v46.0.0 ('No Deeper Escape') 64-bit
Библиотека кодирования : libebml v1.3.10 + libmatroska v1.5.2 / Lavf58.29.100
Видео
Идентификатор : 2
Формат : AVC
Формат/Информация : Advanced Video Codec
Профиль формата : Main@L3.1
Настройки формата : CABAC / 4 Ref Frames
Параметр CABAC формата : Да
Параметр RefFrames формата : 4 кадра
Идентификатор кодека : V_MPEG4/ISO/AVC
Продолжительность : 1 ч. 37 м.
Битрейт : 1521 Кбит/сек
Ширина : 718 пикселей
Высота : 480 пикселей
Соотношение сторон : 4:3
Режим частоты кадров : Постоянный
Частота кадров : 29,970 (30000/1001) кадров/сек
Цветовое пространство : YUV
Субдискретизация насыщенности : 4:2:0
Битовая глубина : 8 бит
Тип развёртки : Прогрессивная
Бит/(Пиксели*Кадры) : 0.147
Размер потока : 1,04 Гбайт (89%)
Библиотека кодирования : x264 core 157 r2935 545de2f
Настройки программы : cabac=1 / ref=3 / deblock=1:0:0 / analyse=0x1:0x111 / me=hex / subme=7 / psy=1 / psy_rd=1.00:0.00 / mixed_ref=1 / me_range=16 / chroma_me=1 / trellis=1 / 8x8dct=0 / cqm=0 / deadzone=21,11 / fast_pskip=1 / chroma_qp_offset=-2 / threads=6 / lookahead_threads=1 / sliced_threads=0 / nr=0 / decimate=1 / interlaced=0 / bluray_compat=0 / constrained_intra=0 / bframes=3 / b_pyramid=2 / b_adapt=1 / b_bias=0 / direct=1 / weightb=1 / open_gop=0 / weightp=2 / keyint=300 / keyint_min=30 / scenecut=40 / intra_refresh=0 / rc_lookahead=40 / rc=crf / mbtree=1 / crf=21.0 / qcomp=0.60 / qpmin=0 / qpmax=69 / qpstep=4 / vbv_maxrate=14000 / vbv_bufsize=14000 / crf_max=0.0 / nal_hrd=none / filler=0 / ip_ratio=1.40 / aq=1:1.00
Default : Да
Forced : Нет
Цветовой диапазон : Limited
Основные цвета : BT.601 NTSC
Характеристики трансфера : BT.709
Коэффициенты матрицы : BT.601
Аудио
Идентификатор : 3
Формат : AAC LC
Формат/Информация : Advanced Audio Codec Low Complexity
Идентификатор кодека : A_AAC-2
Продолжительность : 1 ч. 37 м.
Битрейт : 192 Кбит/сек
Каналы : 2 канала
ChannelLayout : L R
Частота : 48,0 КГц
Частота кадров : 46,875 кадров/сек (1024 SPF)
Метод сжатия : С потерями
Задержка видео : -21 мс.
Размер потока : 134 Мбайт (11%)
Заголовок : Stereo
Язык : Japanese
Default : Да
Forced : Нет
Текст #1
Идентификатор : 1
Формат : UTF-8
Идентификатор кодека : S_TEXT/UTF8
Идентификатор кодека/Информация : UTF-8 Plain Text
Продолжительность : 1 ч. 34 м.
Битрейт : 36 бит/сек
ElementCount : 457
Размер потока : 25,2 Кбайт (0%)
Язык : Russian
Default : Нет
Forced : Нет
Текст #2
Идентификатор : 4
Формат : VobSub
Режим смешивания : zlib
Идентификатор кодека : S_VOBSUB
Идентификатор кодека/Информация : Picture based subtitle format used on DVDs
Продолжительность : 1 ч. 34 м.
Битрейт : 1196 бит/сек
ElementCount : 442
Размер потока : 827 Кбайт (0%)
Язык : English
Default : Да
Forced : Да

Скриншоты




cd Рип дополнительно залит на mail.ru cd2


Last edited by Faer on 2020-11-11 11:13; edited 3 times in total
[Profile] [PM]

Faer ®

Gender: Male

Longevity: 6 years 8 months

Posts: 687

Post 11-Nov-2020 09:18 (after 3 minutes)

[Quote]

Этот фильм - настоящий раритет. Данная версия - единственная сохранившаяся, так как сама лента была долгое время запрещена к показу в Японии. До наших дней сохранилась только единственная его версия, с плохим качеством звука и изображения, и с хронометражем (который в данной раздаче аккуратно замазан).
В отличии от рутрекера, тут чуть выше качество видео (718*480 против 544x384) и не замазан хронометраж.
[Profile] [PM]
Display posts:    
Reply to topic

Current time is: 23-Sep 08:45

All times are UTC + 3



You cannot post new topics in this forum
You cannot reply to topics in this forum
You cannot edit your posts in this forum
You cannot delete your posts in this forum
You cannot vote in polls in this forum
You cannot attach files in this forum
You cannot download files in this forum