Гамера против глубоководного монстра Зигры / Gamera versus Deep Sea Monster Zigra / ガメラ対深海怪獣ジグラ (Нориаки Юаса) [1971, Япония, фантастика, приключения, кайдзю, BDRip 720p] (ЛО : Emslie) (БП : Оригинал) (Sub Eng) (Sub Rus)

Reply to topic
 
Author Message

Faer ®

Gender: Male

Longevity: 5 years 10 months

Posts: 500

Post 24-Oct-2020 05:46

[Quote]

Гамера против глубоководного монстра Зигры / Gamera versus Deep Sea Monster Zigra / Gamera tai Shinkai Kaijū Jigura / ガメラ対深海怪獣ジグラ
Страна: США, Япония
Жанр: фантастика, приключения, кайдзю
Год выпуска: 1971
Продолжительность: 01:28:12
Перевод Любительский (одноголосый, закадровый) Emslie
Перевод 2 Субтитры (AdmiralPiett)
Перевод 2 Субтитры (английские)
Перевод 4 Оригинал (японский)
Cубтитры: английские, русские
Режиссер: Нориаки Юаса
В ролях: Эйко Янами, Рейко Касахара, Микико Цубоути, Кодзи Фукияма, Исаму Саэки, Син Минацу, Арлин Зеллнер, Глория Зеллнер
Описание: На Земле творятся странные вещи: в Перу и Саудовской Аравии происходят невиданные по мощности землетрясения, а двоих учёных вместе с их детьми захватывают инопланетяне. Ученые узнают, что всему виной Зигра - акулоподобное существо с одноименной планеты, которое в поисках пригодного для обитания мира, прилетело на Землю. Зигра начал уничтожать земные города и выдвинул людям ультиматум, чтобы те сдались и отдали ему все моря и океаны. Но гигантская огнедышащая суперчерепаха Гамера не могла этого позволить! Она вступила в схватку с кораблём Зигры и разрушила его. Но под воздействием земного давления, Зигра вырос до огромных размеров и с легкостью победил Гамеру. Смогут ли люди оживить её и остановить захватчика?
Качество видео: BDRip 720p
Формат видео: MKV
Видео: AVC, 1280х536, 2,40:1, 23.926 fps, 5053 Кбит/с
Аудио: 48 kHz, AC3 Dolby Digital, 256 Кбит/с стерео (оригинал)
Аудио 2: 44.1 kHz, MP3, 192 Кбит/с, стерео (ЛО Emslie)
Формат субтитров: softsub (SRT)

MediaInfo

Общее
Уникальный идентификатор : 265763463469914803584956236752444386425 (0xC7F02E65E17A5232ADE0FAC7549EEC79)
Полное имя : C:\Users\Illya\Desktop\Gamera.vs.Zigra.1971.720p.BluRay.x264.mkv
Формат : Matroska
Версия формата : Version 4
Размер файла : 3,38 Гбайт
Продолжительность : 1 ч. 28 м.
Общий поток : 5481 Кбит/сек
Дата кодирования : UTC 2020-10-24 02:10:20
Программа кодирования : mkvmerge v46.0.0 ('No Deeper Escape') 64-bit
Библиотека кодирования : libebml v1.3.10 + libmatroska v1.5.2
Видео
Идентификатор : 1
Формат : AVC
Формат/Информация : Advanced Video Codec
Профиль формата : High@L4.1
Настройки формата : CABAC / 5 Ref Frames
Параметр CABAC формата : Да
Параметр RefFrames формата : 5 кадров
Идентификатор кодека : V_MPEG4/ISO/AVC
Продолжительность : 1 ч. 28 м.
Битрейт : 5053 Кбит/сек
Ширина : 1280 пикселей
Высота : 536 пикселей
Соотношение сторон : 2,40:1
Режим частоты кадров : Переменный
Частота кадров : 23,926 кадра/сек
Частота кадров в оригинале : 23,976 (23976/1000) кадра/сек
Цветовое пространство : YUV
Субдискретизация насыщенности : 4:2:0
Битовая глубина : 8 бит
Тип развёртки : Прогрессивная
Бит/(Пиксели*Кадры) : 0.308
Размер потока : 3,11 Гбайт (92%)
Библиотека кодирования : x264 core 142 r2431 ac76440
Настройки программы : cabac=1 / ref=5 / deblock=1:0:0 / analyse=0x3:0x113 / me=umh / subme=8 / psy=1 / psy_rd=1.00:0.00 / mixed_ref=1 / me_range=16 / chroma_me=1 / trellis=1 / 8x8dct=1 / cqm=0 / deadzone=21,11 / fast_pskip=1 / chroma_qp_offset=-2 / threads=12 / lookahead_threads=2 / sliced_threads=0 / nr=0 / decimate=1 / interlaced=0 / bluray_compat=0 / constrained_intra=0 / bframes=3 / b_pyramid=2 / b_adapt=2 / b_bias=0 / direct=3 / weightb=1 / open_gop=0 / weightp=2 / keyint=250 / keyint_min=23 / scenecut=40 / intra_refresh=0 / rc_lookahead=50 / rc=2pass / mbtree=1 / bitrate=5053 / ratetol=1.0 / qcomp=0.60 / qpmin=0 / qpmax=69 / qpstep=4 / cplxblur=20.0 / qblur=0.5 / ip_ratio=1.40 / aq=1:1.00
Default : Да
Forced : Нет
Аудио #1
Идентификатор : 2
Формат : AC-3
Формат/Информация : Audio Coding 3
Коммерческое название : Dolby Digital
Идентификатор кодека : A_AC3
Продолжительность : 1 ч. 28 м.
Вид битрейта : Постоянный
Битрейт : 256 Кбит/сек
Каналы : 2 канала
ChannelLayout : L R
Частота : 48,0 КГц
Частота кадров : 31,250 кадров/сек (1536 SPF)
Метод сжатия : С потерями
Размер потока : 161 Мбайт (5%)
Заголовок : Japanese
Язык : Japanese
ServiceKind/String : Complete Main
Default : Да
Forced : Нет
Аудио #2
Идентификатор : 4
Формат : MPEG Audio
Версия формата : Version 1
Профиль формата : Layer 3
Настройки формата : Joint stereo
Идентификатор кодека : A_MPEG/L3
Идентификатор кодека/Подсказка : MP3
Продолжительность : 1 ч. 28 м.
Вид битрейта : Постоянный
Битрейт : 192 Кбит/сек
Каналы : 2 канала
Частота : 44,1 КГц
Частота кадров : 38,281 кадров/сек (1152 SPF)
Метод сжатия : С потерями
Размер потока : 121 Мбайт (4%)
Язык : Russian
Default : Нет
Forced : Нет
Текст #1
Идентификатор : 3
Формат : UTF-8
Идентификатор кодека : S_TEXT/UTF8
Идентификатор кодека/Информация : UTF-8 Plain Text
Продолжительность : 1 ч. 28 м.
Битрейт : 29 бит/сек
ElementCount : 827
Размер потока : 18,9 Кбайт (0%)
Заголовок : English
Язык : English
Default : Да
Forced : Нет
Текст #2
Идентификатор : 5
Формат : UTF-8
Идентификатор кодека : S_TEXT/UTF8
Идентификатор кодека/Информация : UTF-8 Plain Text
Продолжительность : 1 ч. 28 м.
Битрейт : 66 бит/сек
ElementCount : 705
Размер потока : 42,8 Кбайт (0%)
Заголовок : AdmiralPiett
Язык : Russian
Default : Нет
Forced : Нет

Скриншоты

cd Рип дополнительно залит на mail.ru cd2


Last edited by Faer on 2020-10-29 11:25; edited 1 time in total
[Profile] [PM]

Faer ®

Gender: Male

Longevity: 5 years 10 months

Posts: 500

Post 24-Oct-2020 05:52 (after 5 minutes)

[Quote]

Почему-то нигде не нашел 1080р. А в ру-сегменте не нашел даже 720р. Решил исправить.
Очередной фильм экологической повестки: "не кидайте мусор в океан, иначе пришельцы расстроятся и придут вас убивать дети ваши будут жить хуже, чем вы".
[Profile] [PM]

Трамвай-фильм

Gender: Male

Longevity: 6 years 3 months

Posts: 1883

Location: Россия

Post 24-Oct-2020 16:11 (after 10 hours)

[Quote]

28292
Очередной фильм экологической повестки: "не кидайте мусор в океан, иначе пришельцы расстроятся и придут вас убивать дети ваши будут жить хуже, чем вы".
Да, Япошки это любили, и экологическую тематику и всяких инопланетных чуд-юд.
[Profile] [PM]

pompilius

Gender: Male

Longevity: 3 years 1 month

Posts: 388

Post 25-Oct-2020 02:14 (after 10 hours)

[Quote]

Есть у меня такой Gamera tai shinkai kaiju Zigra (1971) 1080p-HEVC-6200 Jpn-AC3-2ch-320
Gamera tai shinkai kaiju Zigra (1971) 1080p-HEVC-6200 Jpn-AC3-2ch-320.mkv
Format : Matroska
Format version : Version 2
File size : 4.02 GiB
Duration : 1 h 28 min
Overall bit rate : 6 524 kb/s
Writing application : HandBrake 0.10.1 2015030800
Writing library : Lavf55.12.0
Video
ID : 1
Format : HEVC
Format/Info : High Efficiency Video Coding
Format profile : Main@L4@Main
Codec ID : V_MPEGH/ISO/HEVC
Duration : 1 h 28 min
Bit rate : 6 074 kb/s
Width : 1 920 pixels
Height : 800 pixels
Display aspect ratio : 2.40:1
Frame rate mode : Constant
Frame rate : 29.970 (30000/1001) FPS
Color space : YUV
Chroma subsampling : 4:2:0
Bit depth : 8 bits
Bits/(Pixel*Frame) : 0.132
Stream size : 3.74 GiB (93%)
Writing library : x265 1.5:[Windows][GCC 4.9.0][64 bit]
Encoding settings : wpp / ctu=32 / tu-intra-depth=1 / tu-inter-depth=1 / me=1 / subme=1 / merange=57 / no-rect / no-amp / max-merge=2 / temporal-mvp / early-skip / no-fast-cbf / rdpenalty=0 / no-tskip / no-tskip-fast / strong-intra-smoothing / no-lossless / no-cu-lossless / no-constrained-intra / fast-intra / open-gop / interlace=0 / keyint=300 / min-keyint=30 / scenecut=40 / rc-lookahead=15 / bframes=4 / bframe-bias=0 / b-adapt=0 / ref=1 / weightp / no-weightb / aq-mode=1 / aq-strength=1.00 / cbqpoffs=0 / crqpoffs=0 / rd=2 / psy-rd=0.30 / psy-rdoq=0.00 / signhide / lft / sao / no-sao-non-deblock / b-pyramid / no-cutree / rc=2 / pass / bitrate=6200 / qcomp=0.60 / qpmin=0 / qpmax=51 / qpstep=4 / cplxblur=20.0 / qblur=0.5 / ipratio=1.40 / pbratio=1.30
Default : Yes
Forced : No
Color range : Limited
Color primaries : BT.709
Transfer characteristics : BT.709
Matrix coefficients : BT.709
Audio
ID : 2
Format : AC-3
Format/Info : Audio Coding 3
Commercial name : Dolby Digital
Codec ID : A_AC3
Duration : 1 h 28 min
Bit rate mode : Constant
Bit rate : 320 kb/s
Channel(s) : 2 channels
Channel layout : L R
Sampling rate : 48.0 kHz
Frame rate : 31.250 FPS (1536 SPF)
Bit depth : 16 bits
Compression mode : Lossy
Delay relative to video : -5 ms
Stream size : 202 MiB (5%)
Title : Stereo
Service kind : Complete Main
Default : Yes
Forced : No
нашёл в закромах, надо?
[Profile] [PM]

Faer ®

Gender: Male

Longevity: 5 years 10 months

Posts: 500

Post 25-Oct-2020 08:10 (after 5 hours)

[Quote]

28312Есть у меня такой Gamera tai shinkai kaiju Zigra (1971) 1080p-HEVC-6200 Jpn-AC3-2ch-320
нашёл в закромах, надо?
Да, конечно!
[Profile] [PM]

pompilius

Gender: Male

Longevity: 3 years 1 month

Posts: 388

Post 25-Oct-2020 08:25 (after 15 minutes)

[Quote]

28327
28312Есть у меня такой Gamera tai shinkai kaiju Zigra (1971) 1080p-HEVC-6200 Jpn-AC3-2ch-320
нашёл в закромах, надо?
Да, конечно!
Залил сюда:
https://dropmefiles.com/Ibtg3
[Profile] [PM]

Faer ®

Gender: Male

Longevity: 5 years 10 months

Posts: 500

Post 25-Oct-2020 14:27 (after 6 hours)

[Quote]

28328
28327
28312Есть у меня такой Gamera tai shinkai kaiju Zigra (1971) 1080p-HEVC-6200 Jpn-AC3-2ch-320
нашёл в закромах, надо?
Да, конечно!
Залил сюда:
https://dropmefiles.com/Ibtg3
Спасибо, скачал. Может у вас и остальные части Гамеры в 1080 есть (хотя бы первая)? А то ссылки мёртвые, а на трушке только 720р.
[Profile] [PM]

pompilius

Gender: Male

Longevity: 3 years 1 month

Posts: 388

Post 25-Oct-2020 19:52 (after 5 hours)

[Quote]

28340
28328
28327
28312Есть у меня такой Gamera tai shinkai kaiju Zigra (1971) 1080p-HEVC-6200 Jpn-AC3-2ch-320
нашёл в закромах, надо?
Да, конечно!
Залил сюда:
https://dropmefiles.com/Ibtg3
Спасибо, скачал. Может у вас и остальные части Гамеры в 1080 есть (хотя бы первая)? А то ссылки мёртвые, а на трушке только 720р.
Посмотрю
[Profile] [PM]
Display posts:    
Reply to topic

Current time is: 03-Dec 00:24

All times are UTC + 3



You cannot post new topics in this forum
You cannot reply to topics in this forum
You cannot edit your posts in this forum
You cannot delete your posts in this forum
You cannot vote in polls in this forum
You cannot attach files in this forum
You cannot download files in this forum