Путешествие на дно моря (Сезон 3) / Voyage to the Bottom of the Sea / season 3 (26) (e01-12x26) (Irwin Allen / Ирвин Аллен) [1966-67, фантастика, приключения, DVDRip] АО (Horror Maker)

Reply to topic
 
Author Message

kosmoaelita ®

Gender: Male

Longevity: 8 years 1 month

Posts: 1682

Post 29-Sep-2020 01:44

[Quote]

Путешествие на дно моря (Сериал, Сезон 3) / Voyage to the Bottom of the Sea
Год выпуска: 1966-67
Страна: США, 20th Century Fox Television,
Irwin Allen Productions
Жанр: фантастика, приключения
Продолжительность: 26 x ~ 00:48:40
Перевод: Авторский (одноголосый) Horror Maker
Режиссёр: Irwin Allen / Ирвин Аллен
В ролях:
Richard Basehart ... Adm. Harriman Nelson / ... (110 episodes, 1964-1968)
David Hedison ... Captain Crane / ... (110 episodes, 1964-1968)
Robert Dowdell ... Chip Morton / ... (109 episodes, 1964-1968)
Del Monroe ... Kowalski / ... (98 episodes, 1964-1968)
Terry Becker ... Chief Francis Ethelbert Sharkey / ... (71 episodes, 1965-1968)
Paul Trinka ... Patterson / ... (58 episodes, 1964-1968)
Arch Whiting ... Sparks (41 episodes, 1964-1968)
Richard Bull ... Doctor / ... (27 episodes, 1964-1968)
Henry Kulky ... Chief Curley Jones / ... (22 episodes, 1964-1965)
Marco López ... Crewman / ... (21 episodes, 1966-1968)
Allan Hunt ... Riley / ... (17 episodes, 1965-1966)
Patrick Culliton ... Crewman / ... (12 episodes, 1964-1968)
Derrik Lewis ... Lieutenant O'Brien / ... (8 episodes, 1964-1965)
Paul Carr ... Clark / ... (7 episodes, 1964-1967)
Mark Slade ... Malone / ... (5 episodes, 1964)
Описание: Сериал "Путешествие на дно моря" описывает приключения первой в мире частной атомной подводной лодки ПЛРД "Морской Глаз". Разработанная адмиралом Гарриманом Нельсоном, она предназначалась для океанографических экспедиций, проводимых нельсоновским Институтом морских исследований. Несмотря на множество эпизодов с "чудовищами", очень многие сюжетные линии были откликами на актуальные новости того времени: ядерный "судный день", загрязнение окружающей среды, угроза из-за рубежа, кража технологий - многие из которых не потеряли злободневности и сегодня.

Релиз

Список эпизодов:
s03e01 Monster from the Inferno - Чудовище из Преисподней (1966)
s03e02 Werewolf - Оборотень (1966)
s03e03 The Day the World Ended - День Конца Света(1966)
s03e04 Night of Terror - Ночь ужаса (1966)
s03e05 The Terrible Toys - Ужасные игрушки (1966)
s03e06 Day of Evil - День зла (1966)
s03e07 Deadly Waters - Смертоносные воды (1966)
s03e08 Thing from Inner Space - Тварь из глубины (1966)
s03e09 The Death Watch - Вахта смерти (1966)
s03e10 Deadly Invasion - Смертоносное вторжение (1966)
s03e11 The Haunted Submarine - Призрак на подводной лодке (196)
s03e12 The Plant Man - Растение-человек (1966)

Качество: DVDRip
Формат: MKV
Видео: x264, ~1600 кбит/с, 720x540, 25 к/с
Аудио 1: Русский АО (Horror Maker) (AC3, 2 ch, 192 Кбит/с)
Аудио 2: Английский (AC3, 2 ch, 192 Кбит/с)
Субтитры : английские
Работа над релизом:
Релиз kosmoaelita
Рипы с ДВД с твваулта - kosmoaelita
Авторский перевод по заказу от kosmoaelita - Horror Maker
Спонсоры русского перевода -



Пример русского перевода

Дополнительно

Формат изображения: 4:3
Изображение: цветное
Сатурн, 2007 год
Номинации (1):
Лучшее DVD-издание классического телесериала — «For Seasons 1 & 2»
Also Known As (AKA)
Brazil Viagem ao Fundo do Mar
Germany Die Seaview - In geheimer Mission
Spain Viaje al fondo del mar
Spain (Catalan title) Viatge al fons del mar
France Voyage au fond des mers
Italy Viaggio in fondo al mare
Mexico Viaje al fondo del mar
Venezuela Viaje al fondo del mar
West Germany Die Seaview - In geheimer Mission
West Germany Mission Seaview

Знаете ли вы, что...

Отзывы

Рецензия

MediaInfo

Общее
Уникальный идентификатор : 210285758813836862318070589198822287024 (0x9E339060D8F7D06895349E3831C026B0)
Полное имя : F:\Voyage to the Bottom of the Sea s03 1966-68 DVDRip kosmoaelita\V.B.Sea s03e01 Monster from the Inferno 1966.x264.DVDRip.Rus.kosmoaelita.mkv
Формат : Matroska
Версия формата : Version 4
Размер файла : 693 Мбайт
Продолжительность : 48 м. 43 с.
Общий поток : 1990 Кбит/сек
Название фильма : Voyage to the Bottom of the Sea s03e01 TMonster from the Inferno - Чудовище из Преисподней / 1966 / rip from PAL DVD9 by kosmoaelita (2020-09-27), crf=18.87
Дата кодирования : UTC 2020-10-07 00:17:01
Программа кодирования : mkvmerge v6.6.0 ('The Edge Of The In Between') built on Dec 1 2013 17:55:00
Библиотека кодирования : libebml v1.3.0 + libmatroska v1.4.1
Attachments : poster 3.jpg / s03e01 Monster from the Inferno 1966.mkv.encoding.log
Видео
Идентификатор : 1
Формат : AVC
Формат/Информация : Advanced Video Codec
Профиль формата : High@L4.1
Настройки формата : CABAC / 8 Ref Frames
Параметр CABAC формата : Да
Параметр RefFrames формата : 8 кадров
Идентификатор кодека : V_MPEG4/ISO/AVC
Продолжительность : 48 м. 43 с.
Битрейт : 1601 Кбит/сек
Ширина : 720 пикселей
Высота : 540 пикселей
Соотношение сторон : 4:3
Режим частоты кадров : Постоянный
Частота кадров : 25,000 кадров/сек
Цветовое пространство : YUV
Субдискретизация насыщенности : 4:2:0
Битовая глубина : 8 бит
Тип развёртки : Прогрессивная
Бит/(Пиксели*Кадры) : 0.165
Размер потока : 546 Мбайт (79%)
Заголовок : http://kosmoaelita.com/viewtopic.php?t=3147
Библиотека кодирования : x264 core 146 r2538 121396c
Настройки программы : cabac=1 / ref=8 / deblock=1:-2:-2 / analyse=0x3:0x131 / me=umh / subme=11 / psy=1 / psy_rd=0.99:0.14 / mixed_ref=1 / me_range=24 / chroma_me=1 / trellis=2 / 8x8dct=1 / cqm=0 / deadzone=21,11 / fast_pskip=1 / chroma_qp_offset=-3 / threads=6 / lookahead_threads=1 / sliced_threads=0 / nr=0 / decimate=1 / interlaced=0 / bluray_compat=0 / constrained_intra=0 / bframes=8 / b_pyramid=2 / b_adapt=2 / b_bias=0 / direct=3 / weightb=1 / open_gop=0 / weightp=2 / keyint=210 / keyint_min=21 / scenecut=40 / intra_refresh=0 / rc_lookahead=80 / rc=2pass / mbtree=1 / bitrate=1601 / ratetol=1.0 / qcomp=0.65 / qpmin=0 / qpmax=69 / qpstep=4 / cplxblur=20.0 / qblur=0.5 / ip_ratio=1.25 / aq=1:0.90
Default : Да
Forced : Нет
Цветовой диапазон : Limited
Основные цвета : BT.601 NTSC
Характеристики трансфера : BT.601
Коэффициенты матрицы : BT.601
Аудио #1
Идентификатор : 2
Формат : AC-3
Формат/Информация : Audio Coding 3
Коммерческое название : Dolby Digital
Идентификатор кодека : A_AC3
Продолжительность : 48 м. 43 с.
Вид битрейта : Постоянный
Битрейт : 192 Кбит/сек
Каналы : 2 канала
ChannelLayout : L R
Частота : 48,0 КГц
Частота кадров : 31,250 кадров/сек (1536 SPF)
Метод сжатия : С потерями
Размер потока : 66,9 Мбайт (10%)
Заголовок : Русский АО (Horror Maker) для сайта kosmoaelita
Язык : Russian
ServiceKind/String : Complete Main
Default : Да
Forced : Нет
Аудио #2
Идентификатор : 3
Формат : AC-3
Формат/Информация : Audio Coding 3
Коммерческое название : Dolby Digital
Идентификатор кодека : A_AC3
Продолжительность : 48 м. 43 с.
Вид битрейта : Постоянный
Битрейт : 192 Кбит/сек
Каналы : 2 канала
ChannelLayout : L R
Частота : 48,0 КГц
Частота кадров : 31,250 кадров/сек (1536 SPF)
Метод сжатия : С потерями
Размер потока : 66,9 Мбайт (10%)
Язык : English
ServiceKind/String : Complete Main
Default : Нет
Forced : Нет
Текст
Идентификатор : 4
Формат : VobSub
Режим смешивания : zlib
Идентификатор кодека : S_VOBSUB
Идентификатор кодека/Информация : Picture based subtitle format used on DVDs
Язык : English
Default : Нет
Forced : Нет
Меню
00:01:41.920 : en:00:01:41.920
00:10:29.440 : en:00:10:29.440
00:17:06.480 : en:00:17:06.480
00:25:39.720 : en:00:25:39.720
00:30:45.480 : en:00:30:45.480
00:37:53.040 : en:00:37:53.040
00:44:03.480 : en:00:44:03.480
00:47:49.160 : en:00:47:49.160
00:48:43.480 : en:00:48:43.480

Скриншоты











Скринлист



Last edited by kosmoaelita on 2020-10-20 06:09; edited 14 times in total
[Profile] [PM]

kosmoaelita ®

Gender: Male

Longevity: 8 years 1 month

Posts: 1682

Post 07-Oct-2020 03:28 (after 8 days)

[Quote]

Добавлены первые 4 серии
[Profile] [PM]

kosmoaelita ®

Gender: Male

Longevity: 8 years 1 month

Posts: 1682

Post 18-Oct-2020 09:11 (after 11 days)

[Quote]

Добавлены еще 4 серии
[Profile] [PM]

kosmoaelita ®

Gender: Male

Longevity: 8 years 1 month

Posts: 1682

Post 20-Oct-2020 06:07 (after 1 day 20 hours)

[Quote]

Добавлены 11-12 серии
[Profile] [PM]
Display posts:    
Reply to topic

Current time is: 22-Oct 21:02

All times are UTC + 3



You cannot post new topics in this forum
You cannot reply to topics in this forum
You cannot edit your posts in this forum
You cannot delete your posts in this forum
You cannot vote in polls in this forum
You cannot attach files in this forum
You cannot download files in this forum