Полиция мертвых / Пограничный патруль / Border Patrol (Марк Абер / Mark Haber) [2000, Австралия, США, Фантастика, TVRip] ПД (Премьер Мультимедиа)

Reply to topic
 
Author Message

kosmoaelita ®

Gender: Male

Longevity: 8 years

Posts: 1642

Post 13-Sep-2020 14:11

[Quote]

Полиция мертвых / Пограничный патруль / Border Patrol
Страна: Австралия, США, Wilshire Court Productions
Жанр: Фантастика
Год выпуска: 2000
Продолжительность: 01:25:48
Перевод : Профессиональный (двухголосый) Премьер Мультимедиа
Режиссер: Марк Абер / Mark Haber
В ролях:
Michael DeLorenzo ... Det. Freddie Chavez
Clayton Rohner ... Cal Newman
Lewis Fitz-Gerald ... Dr. Roderick Helms
Mary Elkins ... Janet Helms
Bianca Nacson ... Maureen Ryder
Anthony Brandon Wong ... Capt. Takeyama (as Anthony Wong)
Jacqueline Graham Jacqueline Graham ... Emily Wells
Tony Harvey ... Hieronymous
Michael Scott ... Martin Eldridge
Ian Watkin ... Baldy
Bob Newman ... Doctor
Michael Moore ... Wounded Man
Don Battee ... Detective Copeland (as Don Batte)
Kym Jackson ... Secretary
Tom Betts ... TVC Director
Описание: Где-то в сумеречной зоне пролегает граница между миром мёртвых и миром живых. После того как самые жуткие порождения рода человеческого переходят в мир иной, ими начинает заниматься полиция мёртвых. Случается так, что маньяки и серийные убийцы находят свою смерть раньше, чем успевают завершить свой страшный промысел. И тогда они снова стремятся вернуться в наш мир, чтобы забрать с собой ещё несколько невинных жизней. Призраками особо опасных преступников занимается отдельное подразделение полиции мёртвых. Оно именуется "Пограничным патрулём". В этом специальном отряде служат самые опытные и отчаянные защитники сверхъестественного закона - бесстрашные часовые, пресекающие вторжение в мир живых. Детектив Ньюман - один из них. Новое задание патрульного стало самым сложным за всю его "потустороннюю" карьеру...
Дело в том, что оперативник полиции Майами, следователь Шавез, отправил на тот свет изощрённого убийцу-садиста доктора Хэлмса. Но призрак душегуба вернулся из мира теней с новой жаждой крови. Теперь уже мёртвый доктор Хэлмс становится "клиентом" пограничника Ньюмана. Однако Ньюман сможет поймать бесплотного преступника лишь при помощи живого копа Шавеза, знающего про Хэлмса всё. Ради этого Ньюман пренебрегает строгим кодексом чистилища и впускает своего нового напарника Шавеза в загробный мир...

Качество видео: TVRip
Формат: MKV
Видео: x264, 1921 кбит/с, 720x440, 25 к/с
Аудио 1: Русский ПД (AC3, 2 ch, 224 Кбит/с)
Аудио 2: Английский (AC3, 2 ch, 192 Кбит/с)
Работа над релизом:
Видеоряд найден на синемагеддоне. На 12-й минуте вклеена сцена. продолжительностью в полторы минуты с VHS
Оцифровка лицензионной VHS из собственной коллекции - Hel_ka67
Вся работа по монтажу видео и сведению аудио дорожек - kosmoaelita



Пример русского ПД перевода

Дополнительно

Also Known As (AKA)
(original title) Border Patrol
Brazil Uma Dupla de Morte
Canada (French title) En quête d'âmes
Finland Rajamailla
Hungary Túlvilági járőr
Poland Patrol graniczny
Формат изображения: 1.33 : 1
Изображение: цветное
Язык: английский

Рецензия

BORDER PATROL is a real piece of TV movie trash. The plotting is all over the place and seems to involve some kind of netherworld where the dead aren't really dead. The problem is that they can then cross over to our world, where special agents are on hand to dispatch them with special power-weapons. It's a little like R.I.P.D. but even worse than that CGI-fuelled Hollywood blockbuster.
The list of problems with this production is an endless one. The dialogue smacks of pretentiousness and the cast give lacklustre performances to say the least. It's a telling fact that there are no familiar or even mid-list names here. The director is too obsessed with shooting in silly slow motion and adding in the likes of split-screen effects instead of concentrating on telling a linear, satisfying storyline. In a nutshell, I hated it.

MediaInfo

Общее
Уникальный идентификатор : 185506309614103336014335741701278479278 (0x8B8F373538E59AB9A8E5F297397533AE)
Полное имя : N:\BD-DISC\Border Patrol\Border Patrol 2000.x264.TVRip.Rus.kosmoaelita.mkv
Формат : Matroska
Версия формата : Version 4
Размер файла : 1,41 Гбайт
Продолжительность : 1 ч. 25 м.
Общий поток : 2349 Кбит/сек
Название фильма : Полиция мертвых / Пограничный патруль / Border Patrol / 2000 / kosmoaelita
Дата кодирования : UTC 2020-09-13 11:11:57
Программа кодирования : mkvmerge v6.6.0 ('The Edge Of The In Between') built on Dec 1 2013 17:55:00
Библиотека кодирования : libebml v1.3.0 + libmatroska v1.4.1
Attachments : Border Patrol.rar / poster 500.jpg
Видео
Идентификатор : 1
Формат : AVC
Формат/Информация : Advanced Video Codec
Профиль формата : High@L4.1
Настройки формата : CABAC / 8 Ref Frames
Параметр CABAC формата : Да
Параметр RefFrames формата : 8 кадров
Идентификатор кодека : V_MPEG4/ISO/AVC
Продолжительность : 1 ч. 25 м.
Битрейт : 1921 Кбит/сек
Ширина : 720 пикселей
Высота : 440 пикселей
Соотношение сторон : 16:10
Режим частоты кадров : Постоянный
Частота кадров : 25,000 кадров/сек
Цветовое пространство : YUV
Субдискретизация насыщенности : 4:2:0
Битовая глубина : 8 бит
Тип развёртки : Прогрессивная
Бит/(Пиксели*Кадры) : 0.243
Размер потока : 1,13 Гбайт (80%)
Заголовок : http://kosmoaelita.com/viewtopic.php?t=3141
Библиотека кодирования : x264 core 130 r2273 b3065e6
Настройки программы : cabac=1 / ref=8 / deblock=1:-1:-1 / analyse=0x3:0x133 / me=umh / subme=11 / psy=1 / psy_rd=0.99:0.14 / mixed_ref=1 / me_range=24 / chroma_me=1 / trellis=2 / 8x8dct=1 / cqm=0 / deadzone=21,11 / fast_pskip=1 / chroma_qp_offset=-3 / threads=6 / lookahead_threads=1 / sliced_threads=0 / nr=0 / decimate=1 / interlaced=0 / bluray_compat=0 / constrained_intra=0 / bframes=8 / b_pyramid=2 / b_adapt=2 / b_bias=0 / direct=3 / weightb=1 / open_gop=0 / weightp=2 / keyint=210 / keyint_min=21 / scenecut=40 / intra_refresh=0 / rc_lookahead=80 / rc=2pass / mbtree=1 / bitrate=1921 / ratetol=1.0 / qcomp=0.65 / qpmin=0 / qpmax=69 / qpstep=4 / cplxblur=20.0 / qblur=0.5 / ip_ratio=1.25 / aq=1:0.90
Default : Да
Forced : Нет
Аудио #1
Идентификатор : 2
Формат : AC-3
Формат/Информация : Audio Coding 3
Коммерческое название : Dolby Digital
Идентификатор кодека : A_AC3
Продолжительность : 1 ч. 25 м.
Вид битрейта : Постоянный
Битрейт : 224 Кбит/сек
Каналы : 2 канала
ChannelLayout : L R
Частота : 48,0 КГц
Частота кадров : 31,250 кадров/сек (1536 SPF)
Метод сжатия : С потерями
Размер потока : 137 Мбайт (10%)
Заголовок : Русский ПД (Премьер Мультимедиа)
Язык : Russian
ServiceKind/String : Complete Main
Default : Да
Forced : Нет
Аудио #2
Идентификатор : 3
Формат : AC-3
Формат/Информация : Audio Coding 3
Коммерческое название : Dolby Digital
Идентификатор кодека : A_AC3
Продолжительность : 1 ч. 25 м.
Вид битрейта : Постоянный
Битрейт : 192 Кбит/сек
Каналы : 2 канала
ChannelLayout : L R
Частота : 48,0 КГц
Частота кадров : 31,250 кадров/сек (1536 SPF)
Метод сжатия : С потерями
Размер потока : 118 Мбайт (8%)
Язык : English
ServiceKind/String : Complete Main
Default : Нет
Forced : Нет

Скриншоты
















Скринлист

Файл дополнительно залит на ОБЛАКО
[Profile] [PM]

kosmoaelita ®

Gender: Male

Longevity: 8 years

Posts: 1642

Post 13-Sep-2020 18:42 (after 4 hours)

[Quote]

Как не странно, но я этот фильм про копа, ловящего сбежавших из чистилища преступников, уже когда-то видел...
[Profile] [PM]

Трамвай-фильм

Gender: Male

Longevity: 6 years 1 month

Posts: 1863

Location: Россия

Post 15-Sep-2020 14:38 (after 1 day 19 hours)

[Quote]

28096Как не странно, но я этот фильм про копа, ловящего сбежавших из чистилища преступников, уже когда-то видел...
Я тоже. Вышел один сезон, назывался кажись Brimstone 1998 . Был довольно хороший для своего времени, жаль кончился ничем, как часто бывает в Штатах.
[Profile] [PM]
Display posts:    
Reply to topic

Current time is: 25-Sep 16:33

All times are UTC + 3



You cannot post new topics in this forum
You cannot reply to topics in this forum
You cannot edit your posts in this forum
You cannot delete your posts in this forum
You cannot vote in polls in this forum
You cannot attach files in this forum
You cannot download files in this forum