Огненная буря / Firestorm / Markus 4 (Джон Шеппирд) [1997 г., фантастика, боевик, триллер, DVDRip] ПД (ИНИС), АО (С.Дьяков)

Reply to topic
 
Author Message

admin ®

Gender: Male

Longevity: 7 years

Posts: 4725

Location: Україна

Post 04-Nov-2012 14:17

[Quote]

Огненная буря / Firestorm / Markus 4
Год выпуска: 1997
Страна: США, Somerset Film Productions
Жанр: фантастика, боевик, триллер
Продолжительность: 01:32:19
Перевод 1: ПД ИНИС по заказу ЦПШ
Режиссер: Джон Шеппирд
Перевод 2: АО (Сергей Дьяков)
В ролях: Джон Сэвидж, Бентли Митчэм, Шерри Роуз, Джозеф Калп, Пол Бен-Виктор, Карен Шеперд, Гари Вульф, Пол Уильямс, Роксана Зэл, Роберт Кэрредин
Описание: 2047 год. На планете Маркус вспыхивает эпидемия страшной болезни, против которой бессильна местная медицина. Группа авантюристов-землян прилетает на Маркус и спасает от гибели остатки населения, внедряя в тела умирающих электронное оборудование.
Эпидемия прекращается, но жители планеты теперь превращены в киборгов. Преступный синдикат решает воспользоваться этим…

Качество: DVDRip
Формат: MKV
Видео: xvid, 1513 кбит/с, 640х480, 23.976
Аудио 1: Русский ПМ ИНИС (AC3, 2 ch, 192 Кбит/с)
Аудио 1: Русский АО (Дьяков) (AC3, 2 ch, 192 Кбит/с)
Аудио 2: Английский (AC3, 2 ch, 192 Кбит/с)


Пример русской ПД озвучки ИНИС

Релиз

Рип найден на CG
Захват и синхронизация русской дорожки - sasha20072007
Для Украины: рип и оригинальный ДВД дополнительно залиты в файлохранилище
Для удаления и добавления дорожек в mkv используйте бесплатную mkvmerge GUI 5.80

Дополнительно

Also Known As (AKA)
Firestorm Greece (video title)
Markus 4 USA (alternative title)
Planète androïde France (video title)

MediaInfo

Общее
Уникальный идентификатор : 241885344531566943017311623199012847914 (0xB5F96C3D8CC5AFD9B69997925BF2812A)
Полное имя : H:\1111\Огненная буря Firestorm 1997.XviD.DVDRip.2xRus.kosmoaelita.mkv
Формат : Matroska
Версия формата : Version 4 / Version 2
Размер файла : 1,46 Гбайт
Продолжительность : 1 ч. 32 м.
Режим общего битрейта : Переменный
Общий поток : 2265 Кбит/сек
Название фильма : Firestorm / Markus 4 / Огненная буря / 1997 / kosmoaelita
Дата кодирования : UTC 2014-08-05 19:22:53
Программа кодирования : mkvmerge v6.6.0 ('The Edge Of The In Between') built on Dec 1 2013 17:55:00
Библиотека кодирования : libebml v1.3.0 + libmatroska v1.4.1
Видео
Идентификатор : 1
Формат : MPEG-4 Visual
Профиль формата : Advanced Simple@L5
Параметр BVOP формата : Да
Параметр QPel формата : Нет
Параметр GMC формата : Без точки перехода
Параметр матрицы формата : Выборочная
Идентификатор кодека : V_MS/VFW/FOURCC / XVID
Идентификатор кодека/Подсказка : XviD
Продолжительность : 1 ч. 32 м.
Битрейт : 1513 Кбит/сек
Ширина : 640 пикселей
Высота : 480 пикселей
Соотношение сторон : 4:3
Режим частоты кадров : Постоянный
Частота кадров : 23,976 кадра/сек
Цветовое пространство : YUV
Субдискретизация насыщенности : 4:2:0
Битовая глубина : 8 бит
Тип развёртки : Прогрессивная
Метод сжатия : С потерями
Бит/(Пиксели*Кадры) : 0.205
Размер потока : 999 Мбайт (67%)
Библиотека кодирования : XviD 1.1.2 (UTC 2006-11-01)
Default : Да
Forced : Нет
Аудио #1
Идентификатор : 2
Формат : AC-3
Формат/Информация : Audio Coding 3
Расширение режима : CM (complete main)
Параметр Endianness формата : Big
Идентификатор кодека : A_AC3
Продолжительность : 1 ч. 32 м.
Вид битрейта : Постоянный
Битрейт : 192 Кбит/сек
Каналы : 2 канала
Расположение каналов : Front: L R
Частота : 48,0 КГц
Битовая глубина : 16 бит
Метод сжатия : С потерями
Размер потока : 127 Мбайт (8%)
Заголовок : Русский ПД (ИНИС по заказу ЦПШ)
Язык : Russian
Default : Да
Forced : Нет
Аудио #2
Идентификатор : 3
Формат : AC-3
Формат/Информация : Audio Coding 3
Расширение режима : CM (complete main)
Параметр Endianness формата : Big
Идентификатор кодека : A_AC3
Продолжительность : 1 ч. 32 м.
Вид битрейта : Постоянный
Битрейт : 192 Кбит/сек
Каналы : 2 канала
Расположение каналов : Front: L R
Частота : 48,0 КГц
Битовая глубина : 16 бит
Метод сжатия : С потерями
Размер потока : 127 Мбайт (8%)
Заголовок : Русский АО (Сергей Дьяков)
Язык : Russian
Default : Нет
Forced : Нет
Аудио #3
Идентификатор : 4
Формат : AC-3
Формат/Информация : Audio Coding 3
Расширение режима : CM (complete main)
Параметр Endianness формата : Big
Идентификатор кодека : A_AC3
Продолжительность : 1 ч. 32 м.
Вид битрейта : Постоянный
Битрейт : 192 Кбит/сек
Каналы : 2 канала
Расположение каналов : Front: L R
Частота : 48,0 КГц
Битовая глубина : 16 бит
Метод сжатия : С потерями
Размер потока : 127 Мбайт (8%)
Заголовок : Русский ПД (ИНИС по заказу ЦПШ) неиспр.
Язык : Russian
Default : Нет
Forced : Нет
Аудио #4
Идентификатор : 5
Формат : MPEG Audio
Версия формата : Version 1
Профиль формата : Layer 3
Режим : Joint stereo
Расширение режима : MS Stereo
Идентификатор кодека : A_MPEG/L3
Идентификатор кодека/Подсказка : MP3
Продолжительность : 1 ч. 32 м.
Вид битрейта : Переменный
Битрейт : 130 Кбит/сек
Номинальный битрейт : 144 Кбит/сек
Каналы : 2 канала
Частота : 48,0 КГц
Метод сжатия : С потерями
Размер потока : 86,2 Мбайт (6%)
Библиотека кодирования : LAME3.97
Настройки программы : -m j -V 4 -q 2 -lowpass 17.5 --abr 144
Язык : English
Default : Нет
Forced : Нет

Скринлист

Скриншоты



cd Рип дополнительно залит на mail.ru cd2


Last edited by admin on 2014-08-05 22:37; edited 5 times in total
[Profile] [PM]

admin ®

Gender: Male

Longevity: 7 years

Posts: 4725

Location: Україна

Post 16-Nov-2012 07:14 (after 11 days)

[Quote]

Торрент перезалит. Исправлена проблема с русским звуком в правом канале.
[Profile] [PM]

Guest

Gender: Unknown

Post 16-Nov-2012 08:09 (after 55 minutes)

[Quote]

Спасибо за исправление.) Пытался смикшировать каналы до этого, но результат получался странноватый.)
 

mor

Gender: Unknown

Post 10-Dec-2012 07:18 (after 23 days)

[Quote]

Спасибо!
 

Guest

Gender: Unknown

Post 05-Aug-2014 21:23 (after 1 year 7 months)

[Quote]

тут еще авторская
http://rutracker.org/forum/viewtopic.php?t=4412353
 

admin ®

Gender: Male

Longevity: 7 years

Posts: 4725

Location: Україна

Post 05-Aug-2014 22:35 (after 1 hour 12 minutes)

[Quote]

Добавлена авторская озвучка
[Profile] [PM]
Display posts:    
Reply to topic

Current time is: 21-Sep 01:34

All times are UTC + 3



You cannot post new topics in this forum
You cannot reply to topics in this forum
You cannot edit your posts in this forum
You cannot delete your posts in this forum
You cannot vote in polls in this forum
You cannot attach files in this forum
You cannot download files in this forum