Робокиса / Cyber-C.H.I.C. / Robo C.H.I.C. (Эд Хэнсен, Джеффри Мэндел / Ed Hansen, Jeffrey Mandel) [1990, США, Фантастика. комедия, боевик, VHSRip] АО (Horror Maker)

Reply to topic
 
Author Message

kosmoaelita ®

Gender: Male

Longevity: 8 years

Posts: 1642

Post 07-Sep-2020 18:36

[Quote]

Робокиса / Cyber-C.H.I.C. / Robo C.H.I.C.
Страна: США
Жанр: Фантастика, комедия, боевик
Год выпуска: 1990
Продолжительность: 01:42:07
Перевод : Авторский (одноголосый) Horror Maker
Режиссер: Эд Хэнсен, Джеффри Мэндел / Ed Hansen, Jeffrey Mandel
В ролях:
Kathy Shower ... ROBO-C.H.I.C.
Jennifer Daly ... ROBO-C.H.I.C.
Burt Ward ... Harry Truman Hodgkins
Ranson Baker ... John Kent
Kip King ... Dr. Von Colon
Phil Proctor ... Police Chief Morton
Mansuel Rivers-Bland ... Quentin Thawan
ack Carter ... Dr. Burburagmus
Jeff Austin ... Rufus
Tony Miller ... Denny
Mike Mumman ... Jenny
Erik Fledsion ... Einstein
Jeffrey Judson Smith ... Dawg (as Jeff Smith)
Peter Johnson ... Gimp, The Satan's Onion
Paul Rohrer ... Sgt. Ryan
Описание: Ученый Фон Колон создает чудо кибернетической мысли: женщину-робота, призванную бороться с преступностью. Ее появление на улицах города оказывается как нельзя кстати. Безумный маньяк изготовил несколько атомных бомб. Он угрожает сбросить их на крупнейшие города США, если его требования не будут выполнены. Ситуация закручивается еще сильнее, когда банда байкеров похищает безумца, которого хочет использовать в своих целях…
Релиз

Качество видео: VHSRip
Формат: MKV
Видео: x264, 1465 кбит/с, 640х480, 29.97 к/с
Аудио 1: Русский АО (AC3, 2 ch, 192 Кбит/с)
Аудио 2: Английский (AC3, 2 ch, 192 Кбит/с)
Работа над релизом:
Релиз kosmoaelita.
Видеоряд найден на синемагеддоне.
Перевод на слух с англ. по заказу kosmoaelita - Horror Maker
Русский релиз увидел свет благодаря сборам от kosmoaelita (950р), pompilius (200р),
PonchoUsatiy (250р), snorrinort (200р)



Пример русского перевода

Дополнительно

Also Known As (AKA)
(original title) Cyber-C.H.I.C.
Brazil Robochic
Canada (English title) Cyber-C.H.I.C.
Germany Thunder Tronic
USA (alternative title) Robo-C.H.I.C.
USA (alternative spelling) Robo C.H.I.C.
USA (alternative title) Thunder Tronic
Robo-Chic

Отзывы

Oh man, if there is ever a worse movie made, then somebody is going to have to die. This movie was so bad, it gave me a week of that feeling when you want to rip somebody's heart out. This movie deserves to die. Die die die die die!!!!!! If you ever find this movie in stores, take it out back, and beat the crap out of it until it doesn't even resemble a video. Only Hobgoblins can compare to how bad this movie was for me to watch. I believe it was like sticking a knife into my soul, and twisting it a quarter rotation every other second, on the second. Yikes did it ever suck. It's too bad that Burt Ward were to ever be affiliated with this horrible movie. I liked Burt Ward as Robin. He was cool then. But not now.

MediaInfo

Общее
Уникальный идентификатор : 193637583535008813829811065298838223816 (0x91AD3DF6EA70A819820CA6E043D9FBC8)
Полное имя : N:\Cyber C.H.I.C aka Robo C.H.I.C. 1990.x264.VHSRip.Rus.kosmoaelita.mkv
Формат : Matroska
Версия формата : Version 4
Размер файла : 1,35 Гбайт
Продолжительность : 1 ч. 42 м.
Общий поток : 1887 Кбит/сек
Название фильма : Cyber C.H.I.C / Robo C.H.I.C / Робокиса / 1990 / Релиз kosmoaelita.com
Дата кодирования : UTC 2020-09-07 05:15:06
Программа кодирования : mkvmerge v6.6.0 ('The Edge Of The In Between') built on Dec 1 2013 17:55:00
Библиотека кодирования : libebml v1.3.0 + libmatroska v1.4.1
Attachments : POSTER_.jpg
Видео
Идентификатор : 1
Формат : AVC
Формат/Информация : Advanced Video Codec
Профиль формата : Baseline@L3
Настройки формата : 3 Ref Frames
Параметр CABAC формата : Нет
Параметр RefFrames формата : 3 кадра
Параметр GOP формата : M=1, N=15
Идентификатор кодека : V_MPEG4/ISO/AVC
Продолжительность : 1 ч. 42 м.
Битрейт : 1465 Кбит/сек
Ширина : 640 пикселей
Высота : 480 пикселей
Соотношение сторон : 4:3
Режим частоты кадров : Постоянный
Частота кадров : 29,970 (30000/1001) кадров/сек
Стандарт вещания : NTSC
Цветовое пространство : YUV
Субдискретизация насыщенности : 4:2:0
Битовая глубина : 8 бит
Тип развёртки : Прогрессивная
Бит/(Пиксели*Кадры) : 0.159
Размер потока : 1,05 Гбайт (78%)
Заголовок : http://kosmoaelita.com/viewtopic.php?t=3137
Default : Да
Forced : Нет
Цветовой диапазон : Limited
Аудио #1
Идентификатор : 2
Формат : AC-3
Формат/Информация : Audio Coding 3
Коммерческое название : Dolby Digital
Идентификатор кодека : A_AC3
Продолжительность : 1 ч. 42 м.
Вид битрейта : Постоянный
Битрейт : 192 Кбит/сек
Каналы : 2 канала
ChannelLayout : L R
Частота : 48,0 КГц
Частота кадров : 31,250 кадров/сек (1536 SPF)
Метод сжатия : С потерями
Размер потока : 140 Мбайт (10%)
Заголовок : Русский АО (Horror Maker) для сайта kosmoaelita
Язык : Russian
ServiceKind/String : Complete Main
Default : Да
Forced : Нет
Аудио #2
Идентификатор : 3
Формат : AC-3
Формат/Информация : Audio Coding 3
Коммерческое название : Dolby Digital
Идентификатор кодека : A_AC3
Продолжительность : 1 ч. 42 м.
Вид битрейта : Постоянный
Битрейт : 192 Кбит/сек
Каналы : 2 канала
ChannelLayout : L R
Частота : 48,0 КГц
Частота кадров : 31,250 кадров/сек (1536 SPF)
Метод сжатия : С потерями
Размер потока : 140 Мбайт (10%)
Язык : English
ServiceKind/String : Complete Main
Default : Нет
Forced : Нет
Текст
Идентификатор : 4
Формат : UTF-8
Идентификатор кодека : S_TEXT/UTF8
Идентификатор кодека/Информация : UTF-8 Plain Text
Заголовок : kosmoaelita
Default : Да
Forced : Да

Скриншоты
























Скринлист

[Profile] [PM]
Display posts:    
Reply to topic

Current time is: 25-Sep 15:55

All times are UTC + 3



You cannot post new topics in this forum
You cannot reply to topics in this forum
You cannot edit your posts in this forum
You cannot delete your posts in this forum
You cannot vote in polls in this forum
You cannot attach files in this forum
You cannot download files in this forum