Икс: Неизвестное / Неизвестное чудовище / X: The Unknown / X The Unknown (Лесли Норман) [1956 г., Фантастика, ужасы, детектив, DVDRip] ПМ (), ЛО (А.Бессонов), СТ (VampirO)

Reply to topic
 
Author Message

admin ®

Gender: Male

Longevity: 7 years 2 months

Posts: 4723

Post 04-Nov-2012 06:49

[Quote]

Икс: Неизвестное / Неизвестное чудовище / X: The Unknown / X The Unknown
Год выпуска: 1956
Страна: Великобритания, Hammer Film Productions Limited
Жанр: Фантастика, ужасы, детектив
Продолжительность: 01:20:04
Перевод 1-2: ПМ, ЛО (А.Бессонов)
Режиссер: Лесли Норман
В ролях: Энтони Ньюли, Эдвард Чэпман, Фрейзер Хайнс, Уильям Лукас, Роберт Брюс, Питер Хэммонд, Нил Халлетт, Марианн Браунс, Майкл Риппер, Майкл Брук, Лео МакKерн, Кеннет Коуп, Йен МакНотон, Дин Джэггер, Джон Харви, Джейн Аирд, Джеймисон Кларк
Описание: Повышенный радиационный фон на одной из военных баз Шотландии привлекает на поверхность неизвестную подземную форму жизни, которая оставляет после себя два солдатских трупа и бездонную дыру в земле. Очевидцы утверждают, что неведомая тварь абсорбирует радиацию, вследствие чего увеличивается в размерах
Качество: DVDRip
Формат: MKV
Видео: x264, 1427 Кбит/с, 704х528, 23.976 к/с, crf=20
Аудио 1: Русский ПМ (AC3, 2 ch, 192 Кбит/с)
Аудио 2: Русский А.Бессонов (AC3, 2 ch, 192 Кбит/с)
Аудио 3: Английский (AC3, 2 ch, 192 Кбит/с)
Субтитры : Русские (VampirO), испанские, итальянские
Работа над релизом:
Рип с ДВД5, монтаж - kosmoaelita, качество рипа - crf=20
Озвучка 1: Проф. многоголосый
Озвучка 2: Андрей Бессонов
Русские субтитры: VampirO



Перевод проф. многоголосый

Дополнительно

слоган «NOTHING CAN STOP IT!»
Also Known As (AKA)
To teras apo ta vathi tis Gis Greece (imdb display title)
X - den ukendte fare Denmark
X - tuntematon Finland
X contro il centro atomico Italy
X, o Inimigo Desconhecido Portugal (imdb display title)
XX unbekannt West Germany

Рецензия

Во время учений британской армии на отдаленной шотландской базе из-под земли появляется радиоактивное облако неизвестного происхождения, которой вскоре исчезает, оставив на поверхности двух обезображенных радиацией солдат. Вскоре воздействию этой странной субстанции подвергаются еще несколько военных. На место столь странных событий прибывает американский ученый доктор Адам Ройстон. Вскоре он приходит к выводу, что появившаяся из-под земли субстанция ищет радиоактивные материалы, чтобы питать себя. Доктор Ройстон считает, что этот монстр находился в недрах близлежащих болот, пока современные атомные взрывы не пробудили его ото сна. Военные пытаются уничтожить нежданного монстра, который постепенно увеличивается в размерах, но обычное оружие не способно его убить. В конце концов, доктору Ройстону и его товарищам удается ликвидировать монстра с помощью ультразвуковых волн…
Предтеча фильмов студии «Hammer» о Куотермассе. Картину начинал снимать режиссер Джозеф Лоси, который покинул Голливуд из-за упоминания в «черном списке» сенатора Маккарти, как симпатизирующий коммунистам. Он проработал несколько дней, когда прибывший Дин Джаггер отказался работать с ним по политическим мотивам. Лоси был заменен Лесли Норманом, а его замена официально была объяснена «болезнью». Кстати, Норман также не хотел снимать этот фильм, но ему была нужна работа. Несмотря на то, что фильм получил хорошую критику, актеры в один голос заявляли, что им очень тяжело работалось с Норманом. Именно поэтому студия «Hammer» больше никогда не сотрудничала с ним.
horror-movies.ru

MediaInfo

Общее
Уникальный идентификатор : 214030459576935420597763880096008721579 (0xA104C461633F783EA77A38FACF4B54AB)
Полное имя : F:\Икс Неизвестное 1956.x264.DVDRip.kosmoaelita.com.mkv
Формат : Matroska
Версия формата : Version 4 / Version 2
Размер файла : 1,14 Гбайт
Продолжительность : 1 ч. 20 м.
Общий поток : 2044 Кбит/сек
Название фильма : X: The Unknown / 1956 / rip by sasha20072007
Дата кодирования : UTC 2010-02-22 21:41:31
Программа кодирования : mkvmerge v5.8.0 ('No Sleep / Pillow') built on Sep 30 2012 10:57:14
Библиотека кодирования : libebml v1.3.0 + libmatroska v1.4.0
Attachment : Yes / Yes / Yes / Yes
Видео
Идентификатор : 1
Формат : AVC
Формат/Информация : Advanced Video Codec
Профиль формата : High@L4.1
Параметр CABAC формата : Да
Параметр ReFrames формата : 10 кадров
Идентификатор кодека : V_MPEG4/ISO/AVC
Продолжительность : 1 ч. 20 м.
Битрейт : 1427 Кбит/сек
Ширина : 704 пикселя
Высота : 528 пикселей
Соотношение сторон : 4:3
Режим частоты кадров : Постоянный
Частота кадров : 23,976 кадра/сек
Цветовое пространство : YUV
Субдискретизация насыщенности : 4:2:0
Битовая глубина : 8 бит
Тип развёртки : Прогрессивная
Бит/(Пиксели*Кадры) : 0.160
Размер потока : 817 Мбайт (70%)
Библиотека кодирования : x264 core 120 r2164 da19765
Настройки программы : cabac=1 / ref=10 / deblock=1:-2:-2 / analyse=0x3:0x133 / me=umh / subme=11 / psy=1 / psy_rd=1.00:0.18 / mixed_ref=1 / me_range=24 / chroma_me=1 / trellis=2 / 8x8dct=1 / cqm=0 / deadzone=21,11 / fast_pskip=1 / chroma_qp_offset=-3 / threads=12 / sliced_threads=0 / nr=0 / decimate=1 / interlaced=0 / bluray_compat=0 / constrained_intra=0 / bframes=10 / b_pyramid=2 / b_adapt=2 / b_bias=0 / direct=3 / weightb=1 / open_gop=0 / weightp=2 / keyint=220 / keyint_min=22 / scenecut=40 / intra_refresh=0 / rc_lookahead=60 / rc=crf / mbtree=1 / crf=20.0 / qcomp=0.60 / qpmin=0 / qpmax=69 / qpstep=4 / vbv_maxrate=17500 / vbv_bufsize=14000 / crf_max=0.0 / nal_hrd=none / ip_ratio=1.25 / aq=1:0.90
Default : Да
Forced : Нет
Аудио #1
Идентификатор : 2
Формат : AC-3
Формат/Информация : Audio Coding 3
Расширение режима : CM (complete main)
Параметр Endianness формата : Big
Идентификатор кодека : A_AC3
Продолжительность : 1 ч. 20 м.
Вид битрейта : Постоянный
Битрейт : 192 Кбит/сек
Каналы : 2 канала
Расположение каналов : Front: L R
Частота : 48,0 КГц
Битовая глубина : 16 бит
Метод сжатия : С потерями
Размер потока : 110 Мбайт (9%)
Заголовок : Русский ПМ
Язык : Russian
Default : Да
Forced : Нет
Аудио #2
Идентификатор : 3
Формат : AC-3
Формат/Информация : Audio Coding 3
Расширение режима : CM (complete main)
Параметр Endianness формата : Big
Идентификатор кодека : A_AC3
Продолжительность : 1 ч. 20 м.
Вид битрейта : Постоянный
Битрейт : 192 Кбит/сек
Каналы : 2 канала
Расположение каналов : Front: L R
Частота : 48,0 КГц
Битовая глубина : 16 бит
Метод сжатия : С потерями
Размер потока : 110 Мбайт (9%)
Заголовок : Русский (Андрей Бессонов)
Язык : Russian
Default : Нет
Forced : Нет
Аудио #3
Идентификатор : 4
Формат : AC-3
Формат/Информация : Audio Coding 3
Расширение режима : CM (complete main)
Параметр Endianness формата : Big
Идентификатор кодека : A_AC3
Продолжительность : 1 ч. 20 м.
Вид битрейта : Постоянный
Битрейт : 192 Кбит/сек
Каналы : 2 канала
Расположение каналов : Front: L R
Частота : 48,0 КГц
Битовая глубина : 16 бит
Метод сжатия : С потерями
Размер потока : 110 Мбайт (9%)
Язык : English
Default : Нет
Forced : Нет
Текст #1
Идентификатор : 5
Формат : VobSub
Идентификатор кодека : S_VOBSUB
Идентификатор кодека/Информация : The same subtitle format used on DVDs
Заголовок : Русский (VampirO (c) VobSub
Язык : Russian
Default : Да
Forced : Да
Текст #2
Идентификатор : 6
Формат : UTF-8
Идентификатор кодека : S_TEXT/UTF8
Идентификатор кодека/Информация : UTF-8 Plain Text
Заголовок : Русский (VampirO (c) srt
Язык : Russian
Default : Нет
Forced : Нет
Текст #3
Идентификатор : 7
Формат : UTF-8
Идентификатор кодека : S_TEXT/UTF8
Идентификатор кодека/Информация : UTF-8 Plain Text
Язык : Spanish
Default : Нет
Forced : Нет
Текст #4
Идентификатор : 8
Формат : UTF-8
Идентификатор кодека : S_TEXT/UTF8
Идентификатор кодека/Информация : UTF-8 Plain Text
Язык : Italian
Default : Нет
Forced : Нет
Меню
00:00:00.000 : :Chapter 01
00:01:11.400 : :Chapter 02
00:07:36.234 : :Chapter 03
00:14:59.768 : :Chapter 04
00:17:41.168 : :Chapter 05
00:20:06.168 : :Chapter 06
00:23:14.036 : :Chapter 07
00:26:14.870 : :Chapter 08
00:30:42.404 : :Chapter 09
00:37:07.971 : :Chapter 10
00:40:54.271 : :Chapter 11
00:45:25.038 : :Chapter 12
00:50:29.839 : :Chapter 13
00:59:10.306 : :Chapter 14
01:03:44.174 : :Chapter 15
01:07:00.708 : :Chapter 16
01:09:51.841 : :Chapter 17
01:19:21.709 : :Chapter 18

Скриншоты



Скринлист

Файл дополнительно залит на ОБЛАКО
[Profile] [PM]

Guest

Gender: Unknown

Post 01-Jun-2014 19:05 (after 1 year 6 months)

[Quote]

http://avvaxhome.ru/index.php?url=video/genre/sci_f...known_brrip.html
 

admin ®

Gender: Male

Longevity: 7 years 2 months

Posts: 4723

Post 01-Jun-2014 21:03 (after 1 hour 58 minutes)

[Quote]

720р на 690мбайт.. Это шутка такая или фейк?
[Profile] [PM]

Guest

Gender: Unknown

Post 02-Jun-2014 07:49 (after 10 hours)

[Quote]

фильм ч/б, деталей в ч/б нет,зачем высокий битрейт
 

admin ®

Gender: Male

Longevity: 7 years 2 months

Posts: 4723

Post 02-Jun-2014 09:50 (after 2 hours 1 minute)

[Quote]

Там левый самопальный HDTV - на кокарде справа на нашивках виден интерлейс. частота 25к и отсутствие тайминга глав
http://screenshotcomparison.com/comparison/77225
Качество хуже ДВДРипа
[Profile] [PM]
Quick Reply

Name:

            
Heads necessary to send messages to enable JavaScript
Display posts:    
Reply to topic

Current time is: 17-Nov 17:50

All times are UTC + 3



You cannot post new topics in this forum
You can reply to topics in this forum
You cannot edit your posts in this forum
You cannot delete your posts in this forum
You cannot vote in polls in this forum
You cannot attach files in this forum
You cannot download files in this forum