Киборг 009 и Войны Монстров / Cyborg 009 and the Monster Wars (Сэрикава Юго) [1967, Япония, фантастика, BDRip-1080p] АО (Трамвай-фильм)

Reply to topic
DL-List and Torrent activity
Size:  3.26 GB   |    Registered:  1 month 22 days   |    Completed:  4 times

Seeders:

Username ULR UL DL UL speed DL speed
pompilius 0 0- 0- 0- 0-
shows data only for the current session
 
   
 
 
 
Author Message

Faer ®

Gender: Male

Longevity: 5 years 8 months

Posts: 454

Post 02-Aug-2020 21:08

[Quote]

Киборг 009 и Войны Монстров / Cyborg 009 and the Monster Wars
Страна: Япония
Жанр: фантастика
Год выпуска: 1967
Продолжительность: 01:00:24
Перевод 1: Авторский (одноголосый) Трамвай-фильм
Cубтитры: нет
Режиссер: Сэрикава Юго
Роли озвучивали:: Ота Хироюки, Торияма Кёко, Исихара Рё, Вэн Цяньюй, Отакэ Хироси, Масуока Хироси, Фудзимура Арихиро, Сога Матико, Уцуми Кэндзи, Янами Дзёдзи, Яманоути Масато, Итихара Эцуко
Описание: И вновь Шимамуро Джо и его 8 друзей-киборгов, под руководством доктора Гилмора встают на тропу войны. На этот раз им предстоит справиться с гигантским роботом-плезиозавром, который уничтожает города и атакует суда в море. Однако, этот монстр оказывается не самым страшным, что их ждёт впереди...
Качество видео: BDRip-1080p
Формат видео: MP4
Видео: HVC1, 1920*816, 2.35:1, 23.976fps, 7403 Кбит/с
Аудио 1: AAC, 48,0 КГц, 317 Кбит/с, стерео

MediaInfo

Общее
Полное имя : E:\Аниме\Cyborg 009 - The Yokai War.mp4
Формат : MPEG-4
Профиль формата : Base Media / Version 2
Идентификатор кодека : mp42 (mp42/mp41)
Размер файла : 3,26 Гбайт
Продолжительность : 1 ч. 0 м.
Режим общего битрейта : Переменный
Общий поток : 7 723 Кбит/сек
Дата кодирования : UTC 2020-08-02 03:46:19
Дата пометки : UTC 2020-08-02 03:48:59
TIM : 00:00:00:00
TSC : 24000
TSZ : 1001
Видео
Идентификатор : 1
Формат : HEVC
Формат/Информация : High Efficiency Video Coding
Профиль формата : Main@L4.1@Main
Идентификатор кодека : hvc1
Идентификатор кодека/Информация : High Efficiency Video Coding
Продолжительность : 1 ч. 0 м.
Продолжительность оригинала : 1 ч. 0 м.
Битрейт : 7 403 Кбит/сек
Ширина : 1 920 пикселей
Высота : 816 пикселей
Соотношение сторон : 2,35:1
Режим частоты кадров : Постоянный
Частота кадров : 23,976 (24000/1001) кадра/сек
Цветовое пространство : YUV
Субдискретизация насыщенности : 4:2:0
Битовая глубина : 8 бит
Бит/(Пиксели*Кадры) : 0.197
Размер потока : 3,12 Гбайт (96%)
Размер потока оригинала : 3,12 Гбайт (96%)
Язык : English
Дата кодирования : UTC 2020-08-02 03:46:19
Дата пометки : UTC 2020-08-02 03:46:19
Codec configuration box : hvcC
Аудио
Идентификатор : 2
Формат : AAC LC
Формат/Информация : Advanced Audio Codec Low Complexity
Идентификатор кодека : mp4a-40-2
Продолжительность : 1 ч. 0 м.
Продолжительность оригинала : 1 ч. 0 м.
Вид битрейта : Переменный
Битрейт : 317 Кбит/сек
Максимальный битрейт : 421 Кбит/сек
Каналы : 2 канала
Channel layout : L R
Частота : 48,0 КГц
Частота кадров : 46,875 кадров/сек (1024 SPF)
Метод сжатия : С потерями
Размер потока : 137 Мбайт (4%)
Размер потока оригинала : 137 Мбайт (4%)
Язык : English
Дата кодирования : UTC 2020-08-02 03:46:19
Дата пометки : UTC 2020-08-02 03:46:19

Скриншоты




Cyborg 009 - The Yokai War.torrent
Torrent: Registered [ 2020-08-02 21:08 ]

Download .torrent

Download

65 KB

Status: checked
Completed: 4 times
Size: 3.26 GB
 


Last edited by Faer on 2020-08-02 21:22; edited 1 time in total
[Profile] [PM]

Faer ®

Gender: Male

Longevity: 5 years 8 months

Posts: 454

Post 02-Aug-2020 21:13 (after 4 minutes)

[Quote]

Возможно коряво рипнул, могу заменить/пофиксить, исходники остались.
Хотя при просмотре артефактов не выявил.
[Profile] [PM]

Трамвай-фильм

Gender: Male

Longevity: 6 years 1 month

Posts: 1863

Location: Россия

Post 02-Aug-2020 21:39 (after 26 minutes)

[Quote]

Да ладно, кому надо пусть делают лучше, по мне (по скринам) всё весьма достойно
[Profile] [PM]

Faer ®

Gender: Male

Longevity: 5 years 8 months

Posts: 454

Post 02-Aug-2020 21:48 (after 8 minutes)

[Quote]

27916Да ладно, кому надо пусть делают лучше, по мне (по скринам) всё весьма достойно
Я тогда попозже первую часть ещё переделаю, под 1080p.
[Profile] [PM]
Display posts:    
Reply to topic

Current time is: 25-Sep 15:11

All times are UTC + 3



You cannot post new topics in this forum
You cannot reply to topics in this forum
You cannot edit your posts in this forum
You cannot delete your posts in this forum
You cannot vote in polls in this forum
You cannot attach files in this forum
You can download files in this forum