Автомата / Automata [1-5 из 5] + [1-4 из 4] (Ван Блюмрейх) [2017, США, научная фантастика, детектив, драма, WEB-DL-1080p] СТ (Uboaface)

Reply to topic
DL-List and Torrent activity
Size:  475 MB   |    Registered:  3 months 1 day   |    Completed:  0 times

Seeder not seen: 3 months

 
   
 
 
 
Author Message

Faer ®

Gender: Male

Longevity: 5 years 9 months

Posts: 474

Post 10-Jul-2020 10:23

[Quote]

Автомата / Automata + спешлы
Страна: США
Жанр: короткометражка, научная фантастика, детектив, драма
Год выпуска: 2017
Продолжительность: 5 серий по 9-12 минут (58 минут суммарно) + 4 спешла (8 минут суммарно)
Перевод: Субтитры Uboaface
Cубтитры: русские
Режиссер: Ван Блюмрейх
В ролях: Бейзил Харрис, Даг Джонс, Дилан Смит, Джен Тейлор и др.
Описание:
Сериал о частном сыщике и его напарнике-роботе в альтернативном Нью-Йорке 1930-х годов.
Список серий:
1. Неоновая роза
2. На авось
3. День согласия
4. Помазанник
5. Просто убийство
SP1. Эпилог
SP2. Создание: Автомата
SP3. Трейлер
SP4. Тизер

Качество видео: WEB-DL-1080p
Формат видео: MKV
Видео: AVC, 1920*1080, 16:9, 23.976fps, 947 Кбит/с
Аудио 1: AC3, 48,0 КГц, 192 Кбит/с, стерео (оригинал)
Формат субтитров: softsub (ASS)


Спонсоры релиза: Mr.Faer, Firka, Tokufan inc, 2 анонима.
Перевод: Uboaface
Редактура: Mr.Faer, Laman
Специально для kosmoaelita.com

MediaInfo

Общее
Уникальный идентификатор : 18162001595349999245613174263614115561 (0xDA9DFD04E5EADA15D3F8EB762358EE9)
Полное имя : C:\Users\Ysera\Desktop\Automata Episode 1.mkv
Формат : Matroska
Версия формата : Version 4
Размер файла : 46,5 Мбайт
Продолжительность : 8 м. 48 с.
Общий поток : 738 Кбит/сек
Дата кодирования : UTC 2020-07-09 16:38:01
Программа кодирования : mkvmerge v46.0.0 ('No Deeper Escape') 64-bit
Библиотека кодирования : libebml v1.3.10 + libmatroska v1.5.2
Видео
Идентификатор : 1
Формат : AVC
Формат/Информация : Advanced Video Codec
Профиль формата : High@L4
Настройки формата : CABAC / 3 Ref Frames
Параметр CABAC формата : Да
Параметр RefFrames формата : 3 кадра
Идентификатор кодека : V_MPEG4/ISO/AVC
Продолжительность : 8 м. 48 с.
Битрейт : 610 Кбит/сек
Ширина : 1 920 пикселей
Высота : 1 080 пикселей
Соотношение сторон : 16:9
Режим частоты кадров : Постоянный
Частота кадров : 23,976 (24000/1001) кадра/сек
Цветовое пространство : YUV
Субдискретизация насыщенности : 4:2:0
Битовая глубина : 8 бит
Тип развёртки : Прогрессивная
Бит/(Пиксели*Кадры) : 0.012
Размер потока : 38,4 Мбайт (83%)
Default : Да
Forced : Нет
Цветовой диапазон : Limited
Основные цвета : BT.709
Характеристики трансфера : BT.709
Коэффициенты матрицы : BT.709
Аудио
Идентификатор : 2
Формат : AAC LC
Формат/Информация : Advanced Audio Codec Low Complexity
Идентификатор кодека : A_AAC-2
Продолжительность : 8 м. 48 с.
Битрейт : 126 Кбит/сек
Каналы : 2 канала
Channel layout : L R
Частота : 44,1 КГц
Частота кадров : 43,066 кадра/сек (1024 SPF)
Метод сжатия : С потерями
Размер потока : 7,91 Мбайт (17%)
Язык : English
Default : Да
Forced : Нет
Текст
Идентификатор : 3
Формат : ASS
Идентификатор кодека : S_TEXT/ASS
Идентификатор кодека/Информация : Advanced Sub Station Alpha
Продолжительность : 7 м. 11 с.
Битрейт : 167 бит/сек
Count of elements : 79
Метод сжатия : Без потерь
Размер потока : 8,81 Кбайт (0%)
Default : Да
Forced : Нет

Скриншоты




cd Рип дополнительно залит на облако cd2
Automata.torrent
Torrent: Registered [ 2020-07-29 15:47 ]

Download .torrent

Download

38 KB

Status: checked
Completed: 0 times
Size: 475 MB
 


Last edited by Faer on 2020-07-29 15:49; edited 16 times in total
[Profile] [PM]

Firka

Gender: Unknown

Longevity: 6 months 27 days

Posts: 2

Post 10-Jul-2020 10:25 (after 2 minutes)

[Quote]

Ахах наканецта
[Profile] [PM]

Faer ®

Gender: Male

Longevity: 5 years 9 months

Posts: 474

Post 10-Jul-2020 22:27 (after 12 hours)

[Quote]

Добавлены вторая и третья серии.
[Profile] [PM]

Faer ®

Gender: Male

Longevity: 5 years 9 months

Posts: 474

Post 13-Jul-2020 19:20 (after 2 days 20 hours)

[Quote]

Добавлена четвёртая серия.
[Profile] [PM]

Faer ®

Gender: Male

Longevity: 5 years 9 months

Posts: 474

Post 21-Jul-2020 07:17 (after 7 days)

[Quote]

Добавлена пятая серия + ссылка на облако.
[Profile] [PM]

Faer ®

Gender: Male

Longevity: 5 years 9 months

Posts: 474

Post 23-Jul-2020 22:19 (after 2 days 15 hours)

[Quote]

Добавлен спешл "Making of Automata".
[Profile] [PM]

Faer ®

Gender: Male

Longevity: 5 years 9 months

Posts: 474

Post 29-Jul-2020 15:48 (after 5 days)

[Quote]

Добавлены: тизер, трейлер, эпилог.
[Profile] [PM]
Display posts:    
Reply to topic

Current time is: 31-Oct 12:26

All times are UTC + 3



You can post new topics in this forum
You cannot reply to topics in this forum
You cannot edit your posts in this forum
You cannot delete your posts in this forum
You cannot vote in polls in this forum
You cannot attach files in this forum
You can download files in this forum