Дарующий бессмертие / The Immortalizer / Dr.Immortalizer (Джоэль Бендер / Joel Bender) [1989, США, ужасы, фантастика, BDRip-1080p] АО (Ю.Сербин), АО (А.Гаврилов (с VHS)

Reply to topic
DL-List and Torrent activity
Size:  8.41 GB   |    Registered:  9 days   |    Completed:  1 time

Seeders:

Username ULR UL DL UL speed DL speed
zenya_1985 0 0- 0- 0- 0-
shows data only for the current session
 
   
 
 
 
Author Message

kosmoaelita ®

Gender: Male

Longevity: 7 years 10 months

Posts: 1563

Post 24-Jun-2020 21:00

[Quote]

Дарующий бессмертие / The Immortalizer / Dr.Immortalizer
Страна: США, Film West
Жанр: ужасы, фантастика
Год выпуска: 1989
Продолжительность: 01:36:11
Перевод 1: Авторский (одноголосый) Ю.Сербин
Перевод 2: Авторский (одноголосый) А.Гаврилов (с VHS)
Режиссер: Джоэль Бендер / Joel Bender
В ролях:
Ron Ray ... Dr. Divine
Chris Crone ... Gregg
Clarke Lindsley ... Dr. Price
Melody Patterson ... Nurse Blaine
Steve Jamieson ... Dr. Timmons
Greg Joujon-Roche ... Darrell
Rebekka Armstrong ... June (as Bekki Armstrong)
Cynthia Chase ... Celia
Bob Verne ... Lyle
Terry Miller ... Bandy
Brian David Zola ... Bubba
Raye Hollitt ... Queenie
Bo Byers ... Sheriff Gantry
Elmarie Wendel ... Agnes
Karen Moore ... Julie McClaren
Описание: #1 Четверо подростков после посиделок в кафешке отправляются по домам, но внезапно на них нападают два зомбоподобных существа. Их погружают в машину и отправляют в частный дом, служащий лабораторией для доктора, работающего над проблемой омоложения. Богатые старушки и старички приходят к нему с деньгами, и он делает им дорогостоящие операции, помещая их мозг в молодое тело...
#2 Сюжет фильма повествует о докторе, который с помощью, созданных им, мутантов похищает молодых людей. Затем, в своей клинике, учёный пересаживает в их молодые тела мозги старых богатых людей, тем самым он продлевает им жизнь, а те, в свою очередь, платят ему за такое омоложение большие деньги. Но, как-то раз, всё пошло не так, и одному пареньку удалось сбежать...

Качество видео: BDRip-1080p
Формат: MKV
Видео: x264, 11500 кбит/с, 1920x1036, 23.976 к/с
Аудио 1: Русский АО (AC3, 2 ch, 192 Кбит/с)
Аудио 1: Русский АО (AC3, 2 ch, 192 Кбит/с)
Аудио 2: Английский (AC3, 2 ch, 640 Кбит/с)
Субтитры : английские
Работа над релизом:
Видеоряд найден на rarbg2018.org
Синхронизация русских дорожек - kosmoaelita



Пример русского перевода Ю.Сербина

Дополнительно

слоган «If you're thinking of plastic surgery... Dr. Devine would like to change your mind!»
Also Known As (AKA)
(original title) The Immortalizer
Canada (English title) The Immortalizer
France Dr. Immortalizer
Hungary Halhatalan
Spain El inmortalizador
Spain (alternative title) La clínica del terror

Знаете ли вы, что...

В титрах актриса Ребекка Армстронг значится как Bekki Armstrong.

Отзывы

Так вот откуда черпал Андерсон для своего сериала про корпорацию монстров. Особенно впечатлила пересадка мозгов в ладошках. Очевидно что нейрохирургия это сплошное шарлатанство. За что им деньги платят?!
------------
фильмец жутковатый стоит признать, но смотреть можно.
а мы еще российскую медицину клянем!)
перевод выбрал сербина ибо гаврилов глуховат, все отлично.
понравилось как медсестра там играла.
-----------

Рецензия

Невыносимый треш…
Дарующий бессмертие (я не люблю этот фильм)
А вот этот старенький фильм нужно посмотреть всем тем людям, которые кричат, что раньше снимали отличные фильмы ужасов. Я думаю, они будут удивлены, что раньше тоже снимали глупый треш. Этот фильм я не смотрел в детстве, и поэтому у меня нет никаких положительных воспоминаний из детства. Перед нами абсолютно невменяемый фильм и нет ничего удивительного, что его сейчас никто не знает.
В этом фильме нам расскажут про одну тайную организацию врачей, которые пересаживают тела людей. Они похищают молодую девушку или парня и какому-нибудь богатому старику или старухе пересаживают тела этих молодых людей. Однажды они похищают группу молодых людей прямо на улице. Причем выглядит это очень глупо и нелепо. Один парень из этой группы приходит в себя и сбегает из больницы. А позже он попытается освободить своих друзей. Вот такой незатейливый сюжет у этого фильма.
Я, конечно, люблю треш, когда он может меня развеселить, но ничего смешного в данном фильме точно не будет. Примерно уже на тридцатой минуте интерес к этому фильму пропадает и его становится очень скучно смотреть. Известных актеров тут тоже нет, поэтому и ярких персонажей тут не предвидится. Конечно, немного насмешили люди — звери, которые сидели в яме, но их будут показывать очень редко. А больше ничего хорошего и забавного в этом фильме нет. А про страшные моменты можете сразу забыть.
В итоге, мы имеем проходной треш, который даже один раз не стоит смотреть. Раньше такие картины выходили на кассетах, а сейчас их практически невозможно найти. Кинематограф сам уничтожил данный фильм, и переживать тут даже ненужно. Есть много других картин, которые можно посмотреть с удовольствием, а данный фильм заслуживает только минимальной оценки. Жуть!
Спасибо.
1 из 10

MediaInfo

Общее
Уникальный идентификатор : 218444756131793725669509604700675318994 (0xA456EE0101ADE1D9B9D16BA1D41324D2)
Полное имя : N:\BD-DISC\The.Immortalizer.1989.1080p.BluRay.x264.DTS-FGT\The Immortalizer 1989.x264.1080p.2xRus.kosmoaelita.mkv
Формат : Matroska
Версия формата : Version 4
Размер файла : 8,41 Гбайт
Продолжительность : 1 ч. 36 м.
Общий поток : 12,5 Мбит/сек
Название фильма : Дарующий бессмертие / The Immortalizer / Dr.Immortalizer / 1989 / kosmoaelita
Дата кодирования : UTC 2020-06-23 19:47:27
Программа кодирования : mkvmerge v6.6.0 ('The Edge Of The In Between') built on Dec 1 2013 17:55:00
Библиотека кодирования : libebml v1.3.0 + libmatroska v1.4.1
Attachments : poster opt.jpg
Видео
Идентификатор : 1
Формат : AVC
Формат/Информация : Advanced Video Codec
Профиль формата : High@L4.1
Настройки формата : CABAC / 4 Ref Frames
Параметр CABAC формата : Да
Параметр RefFrames формата : 4 кадра
Идентификатор кодека : V_MPEG4/ISO/AVC
Продолжительность : 1 ч. 36 м.
Битрейт : 11,5 Мбит/сек
Ширина : 1920 пикселей
Высота : 1036 пикселей
Соотношение сторон : 1,85:1
Режим частоты кадров : Постоянный
Частота кадров : 23,976 (24000/1001) кадра/сек
Цветовое пространство : YUV
Субдискретизация насыщенности : 4:2:0
Битовая глубина : 8 бит
Тип развёртки : Прогрессивная
Бит/(Пиксели*Кадры) : 0.241
Размер потока : 7,56 Гбайт (90%)
Заголовок : kosmoaelita.com
Библиотека кодирования : x264 core 148 r2748 97eaef2
Настройки программы : cabac=1 / ref=4 / deblock=1:-2:-2 / analyse=0x3:0x113 / me=umh / subme=9 / psy=1 / psy_rd=1.00:0.15 / mixed_ref=1 / me_range=16 / chroma_me=1 / trellis=2 / 8x8dct=1 / cqm=0 / deadzone=21,11 / fast_pskip=1 / chroma_qp_offset=-3 / threads=24 / lookahead_threads=3 / sliced_threads=0 / nr=0 / decimate=1 / interlaced=0 / bluray_compat=0 / constrained_intra=0 / bframes=3 / b_pyramid=2 / b_adapt=1 / b_bias=0 / direct=3 / weightb=1 / open_gop=0 / weightp=2 / keyint=250 / keyint_min=25 / scenecut=40 / intra_refresh=0 / rc_lookahead=50 / rc=2pass / mbtree=1 / bitrate=11500 / ratetol=1.0 / qcomp=0.60 / qpmin=0 / qpmax=69 / qpstep=4 / cplxblur=20.0 / qblur=0.5 / vbv_maxrate=31250 / vbv_bufsize=31250 / nal_hrd=none / filler=0 / ip_ratio=1.40 / aq=1:1.00
Язык : English
Default : Да
Forced : Нет
Аудио #1
Идентификатор : 2
Формат : AC-3
Формат/Информация : Audio Coding 3
Коммерческое название : Dolby Digital
Идентификатор кодека : A_AC3
Продолжительность : 1 ч. 36 м.
Вид битрейта : Постоянный
Битрейт : 192 Кбит/сек
Каналы : 2 канала
ChannelLayout : L R
Частота : 48,0 КГц
Частота кадров : 31,250 кадров/сек (1536 SPF)
Метод сжатия : С потерями
Размер потока : 132 Мбайт (2%)
Заголовок : Русский АО (Ю.Сербин)
Язык : Russian
ServiceKind/String : Complete Main
Default : Да
Forced : Нет
Аудио #2
Идентификатор : 3
Формат : AC-3
Формат/Информация : Audio Coding 3
Коммерческое название : Dolby Digital
Идентификатор кодека : A_AC3
Продолжительность : 1 ч. 36 м.
Вид битрейта : Постоянный
Битрейт : 192 Кбит/сек
Каналы : 2 канала
ChannelLayout : L R
Частота : 48,0 КГц
Частота кадров : 31,250 кадров/сек (1536 SPF)
Метод сжатия : С потерями
Размер потока : 132 Мбайт (2%)
Заголовок : Русский АО (А.Гаврилов) - c VHS
Язык : Russian
ServiceKind/String : Complete Main
Default : Нет
Forced : Нет
Аудио #3
Идентификатор : 4
Формат : AC-3
Формат/Информация : Audio Coding 3
Коммерческое название : Dolby Digital
Идентификатор кодека : A_AC3
Продолжительность : 1 ч. 36 м.
Вид битрейта : Постоянный
Битрейт : 640 Кбит/сек
Каналы : 2 канала
ChannelLayout : L R
Частота : 48,0 КГц
Частота кадров : 31,250 кадров/сек (1536 SPF)
Метод сжатия : С потерями
Размер потока : 440 Мбайт (5%)
Язык : English
ServiceKind/String : Complete Main
Default : Нет
Forced : Нет
Текст
Идентификатор : 5
Формат : UTF-8
Идентификатор кодека : S_TEXT/UTF8
Идентификатор кодека/Информация : UTF-8 Plain Text
Язык : English
Default : Да
Forced : Нет
Меню
00:00:00.000 : en:Chapter 01
00:18:21.100 : en:Chapter 02
00:36:53.711 : en:Chapter 03
00:55:47.844 : en:Chapter 04
01:15:51.046 : en:Chapter 05

Скриншоты


















Скринлист

Файл дополнительно залит на ОБЛАКО
The Immortalizer 1989.x264.1080p.2xRus.kosmoaelita.mkv.torrent
Torrent: Registered [ 2020-06-24 21:00 ]

Download .torrent

Download

21 KB

Status: checked
Completed: 1 times
Size: 8.41 GB
 


Last edited by kosmoaelita on 2020-06-25 12:45; edited 4 times in total
[Profile] [PM]

kosmoaelita ®

Gender: Male

Longevity: 7 years 10 months

Posts: 1563

Post 24-Jun-2020 21:12 (after 11 minutes)

[Quote]

BDRip vs. VHSRip
[Profile] [PM]

Трамвай-фильм

Gender: Male

Longevity: 5 years 10 months

Posts: 1838

Location: Россия

Post 25-Jun-2020 13:01 (after 15 hours)

[Quote]

Напоминает "Атомный мозг", по сюжету.
[Profile] [PM]
Display posts:    
Reply to topic

Current time is: 04-Jul 00:02

All times are UTC + 3



You cannot post new topics in this forum
You cannot reply to topics in this forum
You cannot edit your posts in this forum
You cannot delete your posts in this forum
You cannot vote in polls in this forum
You cannot attach files in this forum
You can download files in this forum