Космический наркотик / The Cosmic Dope [Short] (Клемент) [2018, США, научная фантастика, драма, WEB-DL-1080p] СТ (Mr.Faer)

Reply to topic
DL-List and Torrent activity
Size:  62 MB   |    Registered:  3 months 18 days   |    Completed:  4 times

Seeders:

Username ULR UL DL UL speed DL speed
pompilius 0 0- 0- 0- 0-
shows data only for the current session
 
   
 
 
 
Author Message

Faer ®

Gender: Male

Longevity: 5 years 8 months

Posts: 456

Post 11-Jun-2020 22:04

[Quote]

Космический наркотик / The Cosmic Dope
Страна: США
Жанр: короткометражка, научная фантастика
Год выпуска: 2018
Продолжительность: 00:04:00
Перевод 1: Субтитры Mr.Faer
Cубтитры: русские
Режиссер: Клемент
В ролях: Кайо Джулиан, Харольд Миклас, Карен Трайбс
Описание:
Четвёртая серия сериала "Космический наркотик". Алан Джонс и Эрик Бобсон экспериментируют с различными веществами. В этой серии им помогает приглашенная гостья - Ненси.
Качество видео: WEB-DL-1080p
Формат видео: MKV
Видео: AVC, 1920*1080, 16:9, 23.976fps, 947 Кбит/с
Аудио 1: AC3, 48,0 КГц, 192 Кбит/с, стерео (оригинал)
Формат субтитров: softsub (SRT)

MediaInfo

Общее
Уникальный идентификатор : 248784624944823717283681515215363695253 (0xBB2A2D0706528807FBD567E8E972E295)
Полное имя : E:\Готовые сабы\The Cosmic Dope.mkv
Формат : Matroska
Версия формата : Version 4
Размер файла : 62,5 Мбайт
Продолжительность : 4 м. 0 с.
Общий поток : 2 177 Кбит/сек
Дата кодирования : UTC 2020-05-31 02:28:03
Программа кодирования : mkvmerge v46.0.0 ('No Deeper Escape') 64-bit
Библиотека кодирования : libebml v1.3.10 + libmatroska v1.5.2
Видео
Идентификатор : 2
Формат : AVC
Формат/Информация : Advanced Video Codec
Профиль формата : High@L4
Настройки формата : CABAC / 3 Ref Frames
Параметр CABAC формата : Да
Параметр RefFrames формата : 3 кадра
Идентификатор кодека : V_MPEG4/ISO/AVC
Продолжительность : 4 м. 0 с.
Битрейт : 2 047 Кбит/сек
Ширина : 1 920 пикселей
Высота : 1 080 пикселей
Соотношение сторон : 16:9
Режим частоты кадров : Постоянный
Частота кадров : 23,976 (24000/1001) кадра/сек
Цветовое пространство : YUV
Субдискретизация насыщенности : 4:2:0
Битовая глубина : 8 бит
Тип развёртки : Прогрессивная
Бит/(Пиксели*Кадры) : 0.041
Размер потока : 58,7 Мбайт (94%)
Default : Да
Forced : Нет
Цветовой диапазон : Limited
Основные цвета : BT.709
Характеристики трансфера : BT.709
Коэффициенты матрицы : BT.709
Аудио
Идентификатор : 1
Формат : AAC LC
Формат/Информация : Advanced Audio Codec Low Complexity
Идентификатор кодека : A_AAC-2
Продолжительность : 4 м. 0 с.
Битрейт : 128 Кбит/сек
Каналы : 2 канала
Channel layout : L R
Частота : 44,1 КГц
Частота кадров : 43,066 кадра/сек (1024 SPF)
Метод сжатия : С потерями
Размер потока : 3,67 Мбайт (6%)
Язык : English
Default : Да
Forced : Нет
Текст
Идентификатор : 3
Формат : UTF-8
Идентификатор кодека : S_TEXT/UTF8
Идентификатор кодека/Информация : UTF-8 Plain Text
Продолжительность : 3 м. 40 с.
Битрейт : 145 бит/сек
Count of elements : 53
Размер потока : 3,93 Кбайт (0%)
Язык : Russian
Default : Да
Forced : Нет

Скриншоты




cd Рип дополнительно залит на облако cd2
The Cosmic Dope.mkv.torrent
Torrent: Registered [ 2020-06-11 22:04 ]

Download .torrent

Download

10 KB

Status: checked
Completed: 4 times
Size: 62 MB
 


Last edited by Faer on 2020-06-11 22:10; edited 2 times in total
[Profile] [PM]

Faer ®

Gender: Male

Longevity: 5 years 8 months

Posts: 456

Post 11-Jun-2020 22:06 (after 2 minutes)

[Quote]

Сделано в стиле шоу 60-х годов.
Когда озвучим, заменю на extended версию (DUST зачем-то отрезали титры после фильма, которые идут почти минуту).
[Profile] [PM]
Display posts:    
Reply to topic

Current time is: 30-Sep 18:53

All times are UTC + 3



You can post new topics in this forum
You cannot reply to topics in this forum
You cannot edit your posts in this forum
You cannot delete your posts in this forum
You cannot vote in polls in this forum
You cannot attach files in this forum
You can download files in this forum