Затерянная планета Человека-ракеты / Lost Planet Airmen (Фред С. Браннон / Fred C. Brannon) [1951, США, Фантастика, боевик, криминал, TVRip] АО (Трамвай-фильм)

Reply to topic
 
Author Message

kosmoaelita ®

Gender: Male

Longevity: 8 years

Posts: 1651

Post 06-Jun-2020 18:43

[Quote]

Затерянная планета Человека-ракеты / Lost Planet Airmen
Страна: США, Republic Pictures (I)
Жанр: Фантастика, боевик, криминал
Год выпуска: 1951
Продолжительность: 01:04:51
Перевод: Авторский (одноголосый) Трамвай-фильм
Режиссер: Фред С. Браннон / Fred C. Brannon
В ролях:
Tristram Coffin ... Jeffrey King (archive footage)
Mae Clarke ... Glenda Thomas (archive footage)
Don Haggerty ... Tony Dirken (archive footage)
House Peters Jr. ... Burt Winslow (archive footage)
James Craven ... Prof. Millard (archive footage)
I. Stanford Jolley ... Prof. Bryant (archive footage)
Douglas Evans ... Chairman (archive footage)
Ted Adams ... Martin Conway (archive footage)
Stanley Price ... Gunther von Strum (archive footage)
Dale Van Sickel ... Martin (archive footage)
Tom Steele ... Knox, a thug (archive footage)
David Sharpe ... Blears (archive footage)
Eddie Parker ... Rowan (archive footage)
Michael Ferro ... Turk (archive footage)
Frank O'Connor ... Warehouse Guard (archive footage)
Описание: Полнометражка представляет собой сильно ужатую компиляцию сериала "King of the Rocket Men" (1949г)
Young member of scientific group uses new rocket-powered flying suit to thwart shadowy saboteur known only as "Dr. Vulcan".

Качество видео: TVRip
Формат: MKV
Видео: XviD, 1465 кбит/с, 640x480, 29.97 к/с
Аудио 1: Русский АО (AC3, 2 ch, 192 Кбит/с)
Аудио 2: Английский (AC3, 2 ch, 128 Кбит/с)
Работа над релизом:
Видеоряд найден на синемагеддоне.
В качестве перевода использована русская дорожка от сериала.
Синхронизация русской дорожки - kosmoaelita
Фрагмент 00:59:30 - 01:00:00 - без перевода



Пример русского перевода

Дополнительно

Also Known As (AKA)
(original title) Lost Planet Airmen
Belgium (French title) Le roi des hommes fusee
Съёмки: 6 апреля 1949 — 27 апреля 1949
Изображение: чёрно-белое
Язык: английский

Знаете ли вы, что...

This movie is a shortened version of the 1949 12-episodes serial King of the Rocket Men.

Отзывы

MediaInfo

Общее
Уникальный идентификатор : 199959646150762923544614473721653893449 (0x966ED3B785CABCCFA516FECA285E1949)
Полное имя : F:\Downloads\0 НА ПЕРЕВОД\Lost Planet Airmen [from King of the Rocket Men] 1951.Xvid.TVrip.Rus.kosmoaelita.mkv
Формат : Matroska
Версия формата : Version 4
Размер файла : 845 Мбайт
Продолжительность : 1 ч. 4 м.
Общий поток : 1821 Кбит/сек
Название фильма : Lost Planet Airmen (from King of the Rocket Men) / 1951 / kosmoaelita
Дата кодирования : UTC 2020-06-06 15:48:29
Программа кодирования : mkvmerge v6.6.0 ('The Edge Of The In Between') built on Dec 1 2013 17:55:00
Библиотека кодирования : libebml v1.3.0 + libmatroska v1.4.1
Attachments : POSTER.jpg
Видео
Идентификатор : 1
Формат : MPEG-4 Visual
Профиль формата : Advanced Simple@L5
Настройки формата : BVOP2
Параметр BVOP формата : 2
Параметр QPel формата : Нет
Параметр GMC формата : Без точки перехода
Параметр матрицы формата : Default (MPEG)
Идентификатор кодека : V_MS/VFW/FOURCC / XVID
Идентификатор кодека/Подсказка : XviD
Продолжительность : 1 ч. 4 м.
Битрейт : 1465 Кбит/сек
Ширина : 640 пикселей
Высота : 480 пикселей
Соотношение сторон : 4:3
Режим частоты кадров : Постоянный
Частота кадров : 29,970 (29970/1000) кадров/сек
Цветовое пространство : YUV
Субдискретизация насыщенности : 4:2:0
Битовая глубина : 8 бит
Тип развёртки : Прогрессивная
Метод сжатия : С потерями
Бит/(Пиксели*Кадры) : 0.159
Размер потока : 680 Мбайт (80%)
Заголовок : http://kosmoaelita.com/viewtopic.php?t=3113
Библиотека кодирования : XviD 1.2.1 (UTC 2008-12-04)
Default : Да
Forced : Нет
Аудио #1
Идентификатор : 2
Формат : AC-3
Формат/Информация : Audio Coding 3
Коммерческое название : Dolby Digital
Идентификатор кодека : A_AC3
Продолжительность : 1 ч. 4 м.
Вид битрейта : Постоянный
Битрейт : 192 Кбит/сек
Каналы : 2 канала
ChannelLayout : L R
Частота : 48,0 КГц
Частота кадров : 31,250 кадров/сек (1536 SPF)
Метод сжатия : С потерями
Размер потока : 89,1 Мбайт (11%)
Заголовок : Русский АО (Трамавай-фильм) - для сайта kosmoaelita
Язык : Russian
ServiceKind/String : Complete Main
Default : Да
Forced : Нет
Аудио #2
Идентификатор : 3
Формат : AC-3
Формат/Информация : Audio Coding 3
Коммерческое название : Dolby Digital
Идентификатор кодека : A_AC3
Продолжительность : 1 ч. 4 м.
Вид битрейта : Постоянный
Битрейт : 128 Кбит/сек
Каналы : 2 канала
ChannelLayout : L R
Частота : 48,0 КГц
Частота кадров : 31,250 кадров/сек (1536 SPF)
Метод сжатия : С потерями
Размер потока : 59,4 Мбайт (7%)
Язык : English
ServiceKind/String : Complete Main
Default : Нет
Forced : Нет

Скриншоты















Скринлист

Файл дополнительно залит на ОБЛАКО


Last edited by kosmoaelita on 2020-06-06 19:04; edited 2 times in total
[Profile] [PM]

kosmoaelita ®

Gender: Male

Longevity: 8 years

Posts: 1651

Post 06-Jun-2020 18:56 (after 13 minutes)

[Quote]

Сериал
http://kosmoaelita.com/viewtopic.php?t=1066
[Profile] [PM]
Display posts:    
Reply to topic

Current time is: 29-Sep 08:36

All times are UTC + 3



You cannot post new topics in this forum
You cannot reply to topics in this forum
You cannot edit your posts in this forum
You cannot delete your posts in this forum
You cannot vote in polls in this forum
You cannot attach files in this forum
You cannot download files in this forum