Призрак Лощины Драгстрип / The Ghost of Dragstrip Hollow (Уильям Дж. Хоул мл. / William J. Hole Jr.) [1959, США, комедия, фантастика, ужасы, DVDRip] АО (Horror Maker)

Reply to topic
 
Author Message

kosmoaelita ®

Gender: Male

Longevity: 8 years 2 months

Posts: 1703

Post 24-May-2020 13:00

[Quote]

Призрак Лощины Драгстрип / The Ghost of Dragstrip Hollow
Страна: США, Alta Vista Productions
Жанр: комедия, фантастика, ужасы
Год выпуска: 1959
Продолжительность: 01:04:54
Перевод: Авторский (одноголосый) Horror Maker
Режиссер: Уильям Дж. Хоул мл. / William J. Hole Jr.
В ролях:
Jody Fair ... Lois Cavendish
Russ Bender ... Tom Hendry
Henry McCann ... Dave
Martin Braddock ... Stan
Elaine DuPont ... Rhoda
Leon Tyler ... Bonzo the Clown
Jack Ging ... Tony
Nancy Anderson ... Nita (Annita)
Dorothy Neumann ... Anastasia Abernathy
Sanita Pelkey ... Amelia
Kirby Smith ... Wesley Cavendish
Jeanne Tatum ... Alice Cavendish (as Jean Tatum)
Beverly Scott ... Hazel
Bill St. Johns ... Ed
Tommy Ivo ... Tommy Ivo
Описание: Клуб лос-анджелесских автогонщиков устраивает себе новую штаб-квартиру в заброшенном особняке. Новоселье решено было отметить шикарным балом-маскарадом, причём каждый приглашённый должен был прийти в костюме своего любимого монстра. Веселье однако несколько омрачилось тем, что выбранный гонщиками дом оказался домом с привидениями.
Качество видео: DVDRip
Формат: MKV
Видео: XviD, 1376 кбит/с, 608x464, 23.976 к/с
Аудио 1: Русский АО (AC3, 2 ch, 192 Кбит/с)
Аудио 2: Английский (AC3, 2 ch, 192 Кбит/с)
Работа над релизом:
Релиз: videodemons
Видеоряд найден на синемагеддоне
За финансирование релиза спасибо - Pakin666, BloodyCorpse, bvedargh,
AlexNever, mauzer, killer snowman



Пример русского перевода

Дополнительно

слоган «The Hot Rod Gang meets the...GHOST of DRAGSTRIP HOLLOW»
Формат изображения: 1.37 : 1
Формат копии: 35 mm
Формат съёмок: 35 mm
Изображение: чёрно-белое
Язык: английский

Знаете ли вы, что...

I guess my brain removal has finally kicked in, but I enjoyed this slice of teen-age nonsense. The r&r seldom stops along with the twirling teens catching the beat. Add the humorous asides from an array of eccentric characters, including a nerdy duo, a wacky spinster with a winged hat, and a parrot from heck. Sure there's no plot, just a blast in a haunted house with a monster in need of employment. But it's a good chance to catch up with the lingo and styles of the day. Of course, for some of us, it's also a tour down memory lane. The cast may be no-names, still they do well enough, even the killjoy dad (Smith). And, oh yeah, catch how the canny producers loaded the first part with dragsters and road racing. That's a good action hook, but turns out to be different from the rest. Then too, I'll bet Tommy Ivo's dragster he so proudly shows off was really his own since he was a dedicated drag racer and designer (IMDB). Anyhow, give your brain a rest and join the nonsensical fun of drive-in 1959.

MediaInfo

Общее
Уникальный идентификатор : 242664324250720380105772539414791189878 (0xB68F72E7E46D6997B97CB13FAF21F576)
Полное имя : The Ghost of Dragstrip Hollow 1959.XviD.DVDRip.Rus.mkv
Формат : Matroska
Версия формата : Version 4
Размер файла : 833 Мбайт
Продолжительность : 1 ч. 4 м.
Общий поток : 1795 Кбит/сек
Название фильма : Призрак Лощины Драгстрип / Ghost of Dragstrip Hollow / 1959 / kosmoaelita
Дата кодирования : UTC 2020-01-28 00:55:54
Программа кодирования : mkvmerge v6.6.0 ('The Edge Of The In Between') built on Dec 1 2013 17:55:00
Библиотека кодирования : libebml v1.3.0 + libmatroska v1.4.1
Attachments : poster.jpg
Видео
Идентификатор : 1
Формат : MPEG-4 Visual
Профиль формата : Advanced Simple@L5
Настройки формата : BVOP1 / Custom Matrix
Параметр BVOP формата : 1
Параметр QPel формата : Нет
Параметр GMC формата : Без точки перехода
Параметр матрицы формата : Выборочная
Идентификатор кодека : V_MS/VFW/FOURCC / XVID
Идентификатор кодека/Подсказка : XviD
Продолжительность : 1 ч. 4 м.
Битрейт : 1376 Кбит/сек
Ширина : 608 пикселей
Высота : 464 пикселя
Соотношение сторон : 4:3
Режим частоты кадров : Постоянный
Частота кадров : 23,976 (23976/1000) кадра/сек
Цветовое пространство : YUV
Субдискретизация насыщенности : 4:2:0
Битовая глубина : 8 бит
Тип развёртки : Прогрессивная
Метод сжатия : С потерями
Бит/(Пиксели*Кадры) : 0.203
Размер потока : 639 Мбайт (77%)
Заголовок : kosmoaelita
Библиотека кодирования : XviD 1.2.0.dev47 (UTC 2006-11-01)
Default : Да
Forced : Нет
Аудио #1
Идентификатор : 2
Формат : AC-3
Формат/Информация : Audio Coding 3
Коммерческое название : Dolby Digital
Идентификатор кодека : A_AC3
Продолжительность : 1 ч. 4 м.
Вид битрейта : Постоянный
Битрейт : 192 Кбит/сек
Каналы : 2 канала
ChannelLayout : L R
Частота : 48,0 КГц
Частота кадров : 31,250 кадров/сек (1536 SPF)
Метод сжатия : С потерями
Размер потока : 89,1 Мбайт (11%)
Заголовок : Русский АО (Horror Maker)
Язык : Russian
ServiceKind/String : Complete Main
Default : Да
Forced : Нет
Аудио #2
Идентификатор : 3
Формат : AC-3
Формат/Информация : Audio Coding 3
Коммерческое название : Dolby Digital
Идентификатор кодека : A_AC3
Продолжительность : 1 ч. 4 м.
Вид битрейта : Постоянный
Битрейт : 192 Кбит/сек
Каналы : 2 канала
ChannelLayout : L R
Частота : 48,0 КГц
Частота кадров : 31,250 кадров/сек (1536 SPF)
Метод сжатия : С потерями
Размер потока : 89,1 Мбайт (11%)
Язык : English
ServiceKind/String : Complete Main
Default : Нет
Forced : Нет

Скриншоты

















Скринлист

Файл дополнительно залит на ОБЛАКО
[Profile] [PM]
Display posts:    
Reply to topic

Current time is: 28-Nov 11:37

All times are UTC + 3



You cannot post new topics in this forum
You cannot reply to topics in this forum
You cannot edit your posts in this forum
You cannot delete your posts in this forum
You cannot vote in polls in this forum
You cannot attach files in this forum
You cannot download files in this forum