SCP 261: Коллекция / SCP 261: Collection (Джеймс Тройчи) [2018-2019, США, короткометражка, научная фантастика, WEB-DL 2160p/WEB-DL 1080p] [4K / 1080p] (ЛД), (ЛО)

Reply to topic
DL-List and Torrent activity
Complete
Size:  447 MB   |    Registered:  1 month 13 days   |    Completed:  0 times

Seeders:

Username ULR UL DL UL speed DL speed
Faer ® 0 0- 0- 0- 0-
shows data only for the current session
 
   
 
 
 
Author Message

Faer ®

Gender: Male

Longevity: 5 years 5 months

Posts: 429

Post 12-May-2020 08:11

[Quote]

SCP 261: Коллекция / SCP 261: Collection
Страна: США
Жанр: короткометражка, научная фантастика
Год выпуска: 2018-2019
Продолжительность: 00:01:38 + 00:01:36
Перевод : Любительский (двухголосый) Kortez & Mr.Faer [ТО AFK] (Ничего)
Перевод : Любительский (двухголосый) Firka & Mr.Faer [ТО И вон то] (Съешь меня)
Перевод : Любительский (одноголосый) Firka [ТО И вон то] (Таинственная коробка)
Перевод : Субтитры (B.Condor) [ТО И вон то] (Печенье со звуком)
Перевод : Любительский (двухголосый) Firka & Mr.Faer [ТО И вон то] (Гриб)
Перевод : Любительский (одноголосый) Firka [ТО И вон то] (Зелёное желе)
Перевод : Любительский (одноголосый) Firka [ТО И вон то] (Молоко с пауками)
Перевод : Любительский (двухголосый) Firka & Mr.Faer [ТО И вон то] (Шоколадное молоко)
Перевод : Любительский (двухголосый) Firka & Mr.Faer [ТО И вон то] (Цитрусовая паста)
Cубтитры: Русские (Mr.Faer, B.Condor, LaMan)
Режиссер: Джеймс Тройчи
В ролях: Брайан Райтон, Сэм Шуртлефф
Описание: Исследование товаров из SCP 261 (Межпространственный Торговый Автомат).
Качество видео: WEB-DL 2160p/WEB-DL 1080p
Формат видео: MKV
Видео: VP9, 3840х2160, 16:9, 23.976fps, 7341 Кбит/с
Аудио 1: AC3, 192 Кбит/с, 48.0КГц, стерео
Аудио 1: AAC, 192 Кбит/с, 48.0КГц, стерео

MediaInfo

Общее
Уникальный идентификатор : 169833573775950507687022714256056212653 (0x7FC4C1ABEEDC8EE984349A1E05CD5CAD)
Полное имя : C:\Users\Professional\Desktop\SCP 261 - Nothing.mkv
Формат : Matroska
Версия формата : Version 4
Размер файла : 88,0 Мбайт
Продолжительность : 1 м. 38 с.
Общий поток : 7533 Кбит/сек
Дата кодирования : UTC 2020-03-20 03:29:51
Программа кодирования : mkvmerge v25.0.0 ('Prog Noir') 64-bit
Библиотека кодирования : libebml v1.3.6 + libmatroska v1.4.9
Видео
Идентификатор : 1
Формат : VP9
Идентификатор кодека : V_VP9
Продолжительность : 1 м. 38 с.
Битрейт : 7341 Кбит/сек
Ширина : 3840 пикселей
Высота : 2160 пикселей
Соотношение сторон : 16:9
Режим частоты кадров : Постоянный
Частота кадров : 23,976 кадра/сек
Цветовое пространство : YUV
Бит/(Пиксели*Кадры) : 0.037
Размер потока : 85,8 Мбайт (97%)
Язык : English
Default : Да
Forced : Нет
Цветовой диапазон : Limited
Основные цвета : BT.709
Характеристики трансфера : BT.709
Коэффициенты матрицы : BT.709
Аудио
Идентификатор : 2
Формат : AC-3
Формат/Информация : Audio Coding 3
Коммерческое название : Dolby Digital
Идентификатор кодека : A_AC3
Продолжительность : 1 м. 38 с.
Вид битрейта : Постоянный
Битрейт : 192 Кбит/сек
Каналы : 2 канала
ChannelLayout : L R
Частота : 48,0 КГц
Частота кадров : 31,250 кадров/сек (1536 SPF)
Метод сжатия : С потерями
Размер потока : 2,24 Мбайт (3%)
Язык : Russian
ServiceKind/String : Complete Main
Default : Да
Forced : Нет

Скриншоты




cd Рип дополнительно залит на облако cd2
SCP 261.torrent
Torrent: Registered [ 2020-05-21 01:58 ]

Download .torrent

Download

36 KB

Status: checked
Completed: 0 times
Size: 447 MB
 


Last edited by Faer on 2020-06-08 17:05; edited 8 times in total
[Profile] [PM]

Faer ®

Gender: Male

Longevity: 5 years 5 months

Posts: 429

Post 12-May-2020 08:12 (after 1 minute)

[Quote]

Остальные товары 261-го SCP будут добавляться сюда.
В отличии от предыдущей раздачи, добавил сабы и оригинальную дорожку.
[Profile] [PM]

Faer ®

Gender: Male

Longevity: 5 years 5 months

Posts: 429

Post 17-May-2020 13:11 (after 5 days)

[Quote]

Добавлены серии: Таинственная коробка, Звуковое печенье, Гриб.
[Profile] [PM]

Faer ®

Gender: Male

Longevity: 5 years 5 months

Posts: 429

Post 18-May-2020 14:06 (after 1 day)

[Quote]

Добавлены серии: Зелёное желе, Молоко с пауками.
[Profile] [PM]

Faer ®

Gender: Male

Longevity: 5 years 5 months

Posts: 429

Post 21-May-2020 01:59 (after 2 days 11 hours)

[Quote]

Добавлены серии: Шоколадное молоко, Цитрусовая паста. На данный момент, больше серий товаров по 261 не имеется.
[Profile] [PM]
Display posts:    
Reply to topic

Current time is: 03-Jul 23:45

All times are UTC + 3



You can post new topics in this forum
You cannot reply to topics in this forum
You cannot edit your posts in this forum
You cannot delete your posts in this forum
You cannot vote in polls in this forum
You cannot attach files in this forum
You can download files in this forum