Принцесса-воительница / Princess Warrior (Lindsay Norgard) [1989, США, фантастика, мелодрама, комедия, DVDRip] АО (Horror Maker)

Reply to topic
 
Author Message

kosmoaelita ®

Gender: Male

Longevity: 8 years

Posts: 1641

Post 08-May-2020 09:39

[Quote]

Принцесса-воительница / Princess Warrior
Релиз - kosmoaelita.com
Страна: США, Vista Street Entertainment
Жанр: фантастика, мелодрама, комедия
Год выпуска: 1989
Продолжительность: 01:23:35
Перевод: Авторский (одноголосый) Horror Maker
Режиссер: Lindsay Norgard
В ролях:
Sharon Lee Jones ... Ovule
Dana Fredsti ... Curette
Mark Pacific ... Bob
Mark Riccardi ... Johnny
Augie Blunt ... Matt
Lauri Warren ... Exzema
Christina Lucia Peralta-Ramos ... Bulemia (as Isibella Peralta)
Sydney Coale ... The First Priestess (as Sydney Coale Phillips)
Lee N. Gerovitz Lee N. Gerovitz ... Vinnie
Stephen J. Cassarino ... Vito
Selga Sanders ... The High Priestess
Cheryl Janecky ... The Queen Mother
Diana Karanikas ... Ricketsia
Cindy Coatman ... Priestess 2
Christine Bessiere ... Priestess 3
Описание:
После смерти Королевы-матери планеты амазонок Вулькария, Куретт - воинственная старшая сестра не смирилась с тем, что трон перешел к ее младшей сестре Овьюл. И следом за ней телепортируется на Землю и начинает преследование...

Качество видео: DVDRip
Формат: MKV
Видео: x264, 1500 кбит/с, 640x480, 23.976 к/с
Аудио 1: Русский АО (Horror Maker) (AC3, 2 ch, 192 Кбит/с)
Аудио 2: Английский (AC3, 2 ch, 192 Кбит/с)
Работа над релизом:
Релиз kosmoaelita.
Видеоряд найден в сети (29,97 -> 23,976).
Перевод на слух с англ. по заказу kosmoaelita - Horror Maker



Пример русского перевода

Дополнительно

слоган «They fought for a Kingdom»

Знаете ли вы, что...

Отзывы

Рецензия

Wow, where to start. I was excited to find this, as it looked like the type of ultra-cheesy sci-fi T&A flick I so enjoy. Was I wrong.
What's good:
Six breasts. A couple butts in thongs. I think the lead character's breasts are actually pixelated out in one scene towards the end, but it's hard to tell; maybe the video quality is just that bad.
Three girls run around in spandex bike shorts through most of the movie. Or should I say sit around.
There's a catfight at the end. I rate it a 1 out of 10.
What's bad:
The dialogue and acting. Stupendously awful. Take the first ten people you meet on the street, then get rid of the five most talented ones, and the remaining five could write and act better than this.
The video quality of the DVD - like something you'd record off TV on a really old VCR tape. I can only assume it was filmed using camcorders. Audio is center speaker only. Music is...words fail me.
The budget. If you drive a 10 year old Chevy Nova, and sold it to finance your moviemaking project, you could make this. There are actually a half dozen people listed in the credits under "stunts", but I can't imagine what stunts they did. Two people are listed as "fight choreographers", but c'mon, that's just laughable. Any pair of twelve-year-olds having a pretend fight in the back yard would be more convincing. Much more convincing.
The story. It looks like they drove around LA at night until they found a particularly deserted street or parking lot, then quickly filmed a scene there. If they would have just ad-libbed the dialogue and made up the story as they went, it could have only been an improvement. But it actually sounds as if they're reciting memorized lines.
T&A? Very little. The sexy picture on the box cover? Ain't in the movie. The catfight at the end is lame. Considering that a sexy catfight is the only thing this movie could have possibly aspired to deliver, and it wouldn't have cost any more to give us a good one, why do they only give us this crap?
By the end it left me with the impression that I'd just watched a home movie made by my neighbor. While he was on a three day drunk.

MediaInfo

Общее
Уникальный идентификатор : 251653967495370321576141985377082647275 (0xBD52CA899D1C2366968B6A888DEFA2EB)
Полное имя : Princess Warrior 1989.x264.DVDRip.Rus.kosmoaelita.mkv
Формат : Matroska
Версия формата : Version 4
Размер файла : 1,10 Гбайт
Продолжительность : 1 ч. 23 м.
Общий поток : 1886 Кбит/сек
Название фильма : Принцесса Воительница / Princess Warrior / 1989г / Релиз kosmoaelita.com
Дата кодирования : UTC 2020-05-08 06:06:38
Программа кодирования : mkvmerge v6.6.0 ('The Edge Of The In Between') built on Dec 1 2013 17:55:00
Библиотека кодирования : libebml v1.3.0 + libmatroska v1.4.1
Attachments : poster Princess Warrior.jpg
Видео
Идентификатор : 1
Формат : AVC
Формат/Информация : Advanced Video Codec
Профиль формата : High@L4.1
Настройки формата : CABAC / 8 Ref Frames
Параметр CABAC формата : Да
Параметр RefFrames формата : 8 кадров
Идентификатор кодека : V_MPEG4/ISO/AVC
Продолжительность : 1 ч. 23 м.
Битрейт : 1500 Кбит/сек
Ширина : 640 пикселей
Высота : 480 пикселей
Соотношение сторон : 4:3
Режим частоты кадров : Постоянный
Частота кадров : 23,976 (23976/1000) кадра/сек
Цветовое пространство : YUV
Субдискретизация насыщенности : 4:2:0
Битовая глубина : 8 бит
Тип развёртки : Прогрессивная
Бит/(Пиксели*Кадры) : 0.204
Размер потока : 876 Мбайт (78%)
Библиотека кодирования : x264 core 152 r2851 ba24899
Настройки программы : cabac=1 / ref=8 / deblock=1:-3:-3 / analyse=0x3:0x131 / me=umh / subme=11 / psy=1 / psy_rd=0.99:0.14 / mixed_ref=1 / me_range=24 / chroma_me=1 / trellis=2 / 8x8dct=1 / cqm=0 / deadzone=21,11 / fast_pskip=1 / chroma_qp_offset=-3 / threads=6 / lookahead_threads=1 / sliced_threads=0 / nr=0 / decimate=1 / interlaced=0 / bluray_compat=0 / constrained_intra=0 / bframes=8 / b_pyramid=2 / b_adapt=2 / b_bias=0 / direct=3 / weightb=1 / open_gop=0 / weightp=2 / keyint=210 / keyint_min=21 / scenecut=40 / intra_refresh=0 / rc_lookahead=80 / rc=2pass / mbtree=1 / bitrate=1500 / ratetol=1.0 / qcomp=0.65 / qpmin=0 / qpmax=69 / qpstep=4 / cplxblur=20.0 / qblur=0.5 / ip_ratio=1.25 / aq=1:0.90
Default : Да
Forced : Нет
Аудио #1
Идентификатор : 2
Формат : AC-3
Формат/Информация : Audio Coding 3
Коммерческое название : Dolby Digital
Идентификатор кодека : A_AC3
Продолжительность : 1 ч. 23 м.
Вид битрейта : Постоянный
Битрейт : 192 Кбит/сек
Каналы : 2 канала
ChannelLayout : L R
Частота : 48,0 КГц
Частота кадров : 31,250 кадров/сек (1536 SPF)
Метод сжатия : С потерями
Размер потока : 115 Мбайт (10%)
Заголовок : Русский АО (Horror Maker) для сайта kosmoaelita
Язык : Russian
ServiceKind/String : Complete Main
Default : Да
Forced : Нет
Аудио #2
Идентификатор : 3
Формат : AC-3
Формат/Информация : Audio Coding 3
Коммерческое название : Dolby Digital
Идентификатор кодека : A_AC3
Продолжительность : 1 ч. 23 м.
Вид битрейта : Постоянный
Битрейт : 192 Кбит/сек
Каналы : 2 канала
ChannelLayout : L R
Частота : 48,0 КГц
Частота кадров : 31,250 кадров/сек (1536 SPF)
Метод сжатия : С потерями
Размер потока : 115 Мбайт (10%)
ServiceKind/String : Complete Main
Default : Нет
Forced : Нет

Скриншоты























Скринлист

[Profile] [PM]
Display posts:    
Reply to topic

Current time is: 23-Sep 08:28

All times are UTC + 3



You cannot post new topics in this forum
You cannot reply to topics in this forum
You cannot edit your posts in this forum
You cannot delete your posts in this forum
You cannot vote in polls in this forum
You cannot attach files in this forum
You cannot download files in this forum