Инопланетное пристанище / Инопланетное поселение / Інопланетна обитель / Alien Domicile / Battlefield Area 51 (Келли Шварц / Kelly Schwarze) [2017, США, Ужасы, фантастика, WEBRip-1080p] ЛМ (Синема УС), ЛО (Xixidok), Укр (2+2)

Reply to topic
DL-List and Torrent activity
Size:  5.19 GB   |    Registered:  4 months 28 days   |    Completed:  7 times

Seeders:

Username ULR UL DL UL speed DL speed
Anonymous 0 0- 0- 0- 0-
pompilius 0 0- 0- 0- 0-
shows data only for the current session
 
   
 
 
 
Author Message

kosmoaelita ®

Gender: Male

Longevity: 8 years

Posts: 1642

Post 26-Apr-2020 16:45

[Quote]

Инопланетное пристанище / Инопланетное поселение / Інопланетна обитель / Alien Domicile / Battlefield Area 51
Страна: США, Indie Film Factory
Жанр: Ужасы, фантастика
Год выпуска: 2017
Продолжительность: 01:15:18
Перевод 1: Любительский (многоголосый) Синема УС
Перевод 2: Любительский (одноголосый) Xixidok
Режиссер: Келли Шварц / Kelly Schwarze
В ролях:
Elly Brown ... Hanna
Eduard Osipov ... Dimitri
Michael Monteiro ... Russell Turner
Sabrina Cofield ... Gail Sullivan
Michael Tushaus ... Master Sergeant Ryan Pierce (as Michael A. Tushaus)
Ashley Campbell ... Adult Emily
Rest of cast listed alphabetically:
Will Edwards ... The Alien
Paul Tumpson ... Soldier 2
Victoria Viveiros ... Soldier 1
Описание: Группа, состоящая их военных, чиновников и техников внезапно обнаруживает, что они находятся в самом центре подземной военной базы, по которой разгуливают инопланетные существа. У них есть лишь один путь наружу - тоннели, но чтобы до них добраться, нужно преодолеть множество препятствий, а главное - свой страх.
Качество видео: WEBRip-1080p
Формат: MKV
Видео: x264, 8881 кбит/с, 1920x800, 23.976 к/с
Аудио 1: Русский ЛМ (Синема УС) (AC3, 2 ch, 384 Кбит/с)
Аудио 2: Русский ЛО (Xixidok) (AC3, 2 ch, 224 Кбит/с)
Аудио 3: Английский (AC3, 2 ch, 384 Кбит/с)
Субтитры : английские
Работа над релизом:
Видеоряд найден на rarbg2018.org
Синхронизация русской дорожки и удаление рекламы казино - kosmoaelita
(вырезание русских фраз и наложение на ориг. дорожку)



Пример русского ЛМ перевода

Дополнительно

бюджет $85 000
Also Known As (AKA)
(original title) Alien Domicile
Germany Alien Domicile
Japan (Japanese title) エイリアンZ 超感染
Ukraine (TV listings title) Інопланетна обитель
UK Alien Domicile

Отзывы

MediaInfo

Общее
Уникальный идентификатор : 249658898366460915100636417183998042595 (0xBBD28E08FD53385893D852802A1861E3)
Полное имя : Alien Domicile 2017.x264.WEBRip.1080p.2xRus.kosmoaelita.mkv
Формат : Matroska
Версия формата : Version 4
Размер файла : 5,19 Гбайт
Продолжительность : 1 ч. 15 м.
Общий поток : 9873 Кбит/сек
Название фильма : Alien Domicile / Battlefield Area 51 / 2017 / kosmoaelita.com
Дата кодирования : UTC 2020-04-26 13:45:51
Программа кодирования : mkvmerge v6.6.0 ('The Edge Of The In Between') built on Dec 1 2013 17:55:00
Библиотека кодирования : libebml v1.3.0 + libmatroska v1.4.1
Attachments : POSTER.jpg
Видео
Идентификатор : 1
Формат : AVC
Формат/Информация : Advanced Video Codec
Профиль формата : High@L4.1
Настройки формата : CABAC / 5 Ref Frames
Параметр CABAC формата : Да
Параметр RefFrames формата : 5 кадров
Идентификатор кодека : V_MPEG4/ISO/AVC
Продолжительность : 1 ч. 15 м.
Битрейт : 8881 Кбит/сек
Ширина : 1920 пикселей
Высота : 800 пикселей
Соотношение сторон : 2,40:1
Режим частоты кадров : Постоянный
Частота кадров : 23,976 (24000/1001) кадра/сек
Цветовое пространство : YUV
Субдискретизация насыщенности : 4:2:0
Битовая глубина : 8 бит
Тип развёртки : Прогрессивная
Бит/(Пиксели*Кадры) : 0.241
Размер потока : 4,57 Гбайт (88%)
Заголовок : http://kosmoaelita.com/viewtopic.php?t=3095
Библиотека кодирования : x264 core 157 r2969 d4099dd
Настройки программы : cabac=1 / ref=5 / deblock=1:0:0 / analyse=0x3:0x133 / me=umh / subme=7 / psy=1 / psy_rd=1.00:0.00 / mixed_ref=1 / me_range=16 / chroma_me=1 / trellis=2 / 8x8dct=1 / cqm=0 / deadzone=21,11 / fast_pskip=0 / chroma_qp_offset=-2 / threads=18 / lookahead_threads=3 / sliced_threads=0 / nr=0 / decimate=1 / interlaced=0 / bluray_compat=0 / constrained_intra=0 / bframes=3 / b_pyramid=2 / b_adapt=1 / b_bias=0 / direct=3 / weightb=1 / open_gop=0 / weightp=2 / keyint=250 / keyint_min=23 / scenecut=40 / intra_refresh=0 / rc_lookahead=50 / rc=2pass / mbtree=1 / bitrate=8881 / ratetol=1.0 / qcomp=0.60 / qpmin=0 / qpmax=69 / qpstep=4 / cplxblur=20.0 / qblur=0.5 / ip_ratio=1.40 / aq=1:1.00
Язык : English
Default : Да
Forced : Нет
Аудио #1
Идентификатор : 2
Формат : AC-3
Формат/Информация : Audio Coding 3
Коммерческое название : Dolby Digital
Идентификатор кодека : A_AC3
Продолжительность : 1 ч. 15 м.
Вид битрейта : Постоянный
Битрейт : 384 Кбит/сек
Каналы : 2 канала
ChannelLayout : L R
Частота : 48,0 КГц
Частота кадров : 31,250 кадров/сек (1536 SPF)
Метод сжатия : С потерями
Размер потока : 207 Мбайт (4%)
Заголовок : Русский ЛМ (Синема УС) - выделение русских фраз и наложение
Язык : Russian
ServiceKind/String : Complete Main
Default : Да
Forced : Нет
Аудио #2
Идентификатор : 3
Формат : AC-3
Формат/Информация : Audio Coding 3
Коммерческое название : Dolby Digital
Идентификатор кодека : A_AC3
Продолжительность : 1 ч. 15 м.
Вид битрейта : Постоянный
Битрейт : 224 Кбит/сек
Каналы : 2 канала
ChannelLayout : L R
Частота : 48,0 КГц
Частота кадров : 31,250 кадров/сек (1536 SPF)
Метод сжатия : С потерями
Размер потока : 121 Мбайт (2%)
Заголовок : Русский ЛО (Xixidok)
Язык : Russian
ServiceKind/String : Complete Main
Default : Нет
Forced : Нет
Аудио #3
Идентификатор : 4
Формат : AC-3
Формат/Информация : Audio Coding 3
Коммерческое название : Dolby Digital
Идентификатор кодека : A_AC3
Продолжительность : 1 ч. 15 м.
Вид битрейта : Постоянный
Битрейт : 384 Кбит/сек
Каналы : 2 канала
ChannelLayout : L R
Частота : 48,0 КГц
Частота кадров : 31,250 кадров/сек (1536 SPF)
Метод сжатия : С потерями
Размер потока : 207 Мбайт (4%)
Язык : English
ServiceKind/String : Complete Main
Default : Нет
Forced : Нет
Текст #1
Идентификатор : 5
Формат : UTF-8
Идентификатор кодека : S_TEXT/UTF8
Идентификатор кодека/Информация : UTF-8 Plain Text
Заголовок : SDH
Язык : English
Default : Да
Forced : Нет
Текст #2
Идентификатор : 6
Формат : UTF-8
Идентификатор кодека : S_TEXT/UTF8
Идентификатор кодека/Информация : UTF-8 Plain Text
Язык : English
Default : Нет
Forced : Нет
Меню
00:00:00.000 : en:00:00:00.000
00:10:14.989 : en:00:10:14.989
00:19:25.956 : en:00:19:25.956
00:29:04.910 : en:00:29:04.910
00:38:09.913 : en:00:38:09.913
00:47:46.947 : en:00:47:46.947
00:57:49.966 : en:00:57:49.966
01:05:25.922 : en:01:05:25.922
01:12:28.970 : en:01:12:28.970

Скриншоты













Скринлист

Файл дополнительно залит на ОБЛАКО
Alien Domicile 2017.x264.WEBRip.1080p.2xRus.kosmoaelita.mkv.torrent
Torrent: Registered [ 2020-04-26 16:56 ]

Download .torrent

Download

26 KB

Status: checked
Completed: 7 times
Size: 5.19 GB
 
[Profile] [PM]
Display posts:    
Reply to topic

Current time is: 25-Sep 15:30

All times are UTC + 3



You cannot post new topics in this forum
You cannot reply to topics in this forum
You cannot edit your posts in this forum
You cannot delete your posts in this forum
You cannot vote in polls in this forum
You cannot attach files in this forum
You can download files in this forum