Боевая башня / Ганхед: Война роботов / Gunhed / Ganheddo [1989, Япония, фантастика, боевик, WEB-DL-1080p] (АО : Андрей Дольский) (ЛО) (ЛО) (Sub Eng)

Reply to topic
DL-List and Torrent activity
Size:  3.79 GB   |    Registered:  1 year 4 months   |    Completed:  13 times

Seeders:

Username ULR UL DL UL speed DL speed
pompilius 0 0- 0- 0- 0-
shows data only for the current session
 
   
 
 
 
Author Message

Guest ®

Gender: Unknown

Post 23-Apr-2020 19:21

[Quote]

Боевая башня / Ганхед: Война роботов / Gunhed / Ganheddo
Страна: Япония
Жанр: фантастика, боевик
Год выпуска: 1989
Продолжительность: 01:40:18
Режиссер: Масато Харада / Masato Harada, Алан Смити / Alan Smithee
Перевод: Авторский (одноголосый) Андрей Дольский
Cубтитры: английские
В ролях: Масахиро Такашима, Бренда Бакке, Джеймс Брюстер Томпсон, Каори Мизушима, Ёсуке Саито, Долл Нгуйен, Рэнди Рейс, Мики Кертис
Описание: В 2038 году группа мусорщиков входит в комплекс Kyron-5 в поисках драгоценного вещества Texmexium. Все они погибают, кроме механика Бруклина. Он встречает странствующего Texas Ari Ranger и двух детей. Чтобы спасти себя и человечество от гнева Kyron-5, они должны его уничтожить. Бруклин находит GUNHED (Gun UNit Heavy Elimination Device), боевого робота, и восстанавливает его. Тем временем Babe трансформируется в био-дройда и ищет сержанта Nim и Texmexium, который она украла. Чтобы спасти её и уничтожить Kyron-5, Бруклин должен справиться со своей боязнью кокпитов и пилотировать GUNHED до вершины башни. По пути он сталкивается с защитными системами комплекса.
Качество видео: WEB-DL-1080p
Видео: x264, 4829 кбит/с, 1912x1032, 23.976 к/с
Аудио 1: Русский (AC3, 2 ch, 192 Кбит/с)
Аудио 2: Английский (AC3, 2 ch, 192 Кбит/с)
Аудио 3: Японский (AC3, 2 ch, 192 Кбит/с)
Формат субтитров: softsub (SRT)

MediaInfo

General
Unique ID : 196014650985610311430706766443177964778 (0x93770C70359D113922A27D9F4921F4EA)
Complete name : F:\Torrent\Gunhed.1989.1080p.WEB-DL.H264.mkv
Format : Matroska
Format version : Version 4
File size : 3.79 GiB
Duration : 1 h 40 min
Overall bit rate : 5 413 kb/s
Movie name : Gunhed (1989)
Encoded date : UTC 2020-04-23 16:02:18
Writing application : mkvmerge v41.0.0 ('Smarra') 64-bit
Writing library : libebml v1.3.9 + libmatroska v1.5.2
Cover : Yes
Attachments : Cover.png
Video
ID : 1
Format : AVC
Format/Info : Advanced Video Codec
Format profile : High@L4
Format settings : CABAC / 4 Ref Frames
Format settings, CABAC : Yes
Format settings, Reference fra : 4 frames
Codec ID : V_MPEG4/ISO/AVC
Duration : 1 h 40 min
Bit rate : 4 829 kb/s
Width : 1 912 pixels
Height : 1 032 pixels
Display aspect ratio : 1.85:1
Frame rate mode : Constant
Frame rate : 23.976 (24000/1001) FPS
Color space : YUV
Chroma subsampling : 4:2:0
Bit depth : 8 bits
Scan type : Progressive
Bits/(Pixel*Frame) : 0.102
Stream size : 3.38 GiB (89%)
Title : iTunes / MPEG-4 AVC Video / 4829 kbps / 1080p / 23.976 fps / 1.85:1 / High Profile 4.0
Language : Japanese
Default : Yes
Forced : No
Color range : Limited
Color primaries : BT.709
Transfer characteristics : BT.709
Matrix coefficients : BT.709
Audio #1
ID : 2
Format : AC-3
Format/Info : Audio Coding 3
Commercial name : Dolby Digital
Codec ID : A_AC3
Duration : 1 h 40 min
Bit rate mode : Constant
Bit rate : 192 kb/s
Channel(s) : 2 channels
Channel layout : L R
Sampling rate : 48.0 kHz
Frame rate : 31.250 FPS (1536 SPF)
Compression mode : Lossy
Stream size : 138 MiB (4%)
Title : AVO (А.Дольский)
Language : Russian
Service kind : Complete Main
Default : Yes
Forced : No
Audio #2
ID : 3
Format : AC-3
Format/Info : Audio Coding 3
Commercial name : Dolby Digital
Codec ID : A_AC3
Duration : 1 h 40 min
Bit rate mode : Constant
Bit rate : 192 kb/s
Channel(s) : 2 channels
Channel layout : L R
Sampling rate : 48.0 kHz
Frame rate : 31.250 FPS (1536 SPF)
Compression mode : Lossy
Stream size : 138 MiB (4%)
Language : English
Service kind : Complete Main
Default : No
Forced : No
Audio #3
ID : 4
Format : AC-3
Format/Info : Audio Coding 3
Commercial name : Dolby Digital
Codec ID : A_AC3
Duration : 1 h 40 min
Bit rate mode : Constant
Bit rate : 192 kb/s
Channel(s) : 2 channels
Channel layout : L R
Sampling rate : 48.0 kHz
Frame rate : 31.250 FPS (1536 SPF)
Compression mode : Lossy
Stream size : 138 MiB (4%)
Language : Japanese
Service kind : Complete Main
Default : No
Forced : No
Text
ID : 5
Format : UTF-8
Codec ID : S_TEXT/UTF8
Codec ID/Info : UTF-8 Plain Text
Duration : 1 h 36 min
Bit rate : 13 b/s
Count of elements : 333
Stream size : 9.76 KiB (0%)
Language : English
Default : No
Forced : No

Скриншоты

Gunhed.1989.1080p.WEB-DL.H264.mkv.torrent
Torrent: Registered [ 2020-04-23 19:21 ]

Download .torrent

Download

19 KB

Status: checked
Completed: 13 times
Size: 3.79 GB
 
 
Display posts:    
Reply to topic

Current time is: 23-Sep 08:33

All times are UTC + 3



You cannot post new topics in this forum
You cannot reply to topics in this forum
You cannot edit your posts in this forum
You cannot delete your posts in this forum
You cannot vote in polls in this forum
You cannot attach files in this forum
You can download files in this forum