Освобождение / The Journey: Absolution (Дэвид ДеКото / David DeCoteau) [1997, США, Фантастика, WEBRip-1080p] ПД ()

Reply to topic
 
Author Message

AlexNT60 ®

Gender: Male

Longevity: 7 years 5 months

Posts: 136

Location: СПб

Post 14-Apr-2020 16:11

[Quote]

Освобождение / The Journey: Absolution
Страна: США
Жанр: Фантастика
Год выпуска: 1997
Продолжительность: 01:30:42
Перевод 1: Профессиональный (двухголосый)
Cубтитры: английские
Режиссер: Дэвид ДеКото / David DeCoteau
В ролях: Марио Лопез, Джейми Прессли, Ричард Греко, Грег Серано, Джастин Уолкер, Ник Спано, Дэймон Шарп, Чарльз Мэттокс, Стив Уайлдер, Холли Л. Хуммель
Описание: Болезнь и хаос толкают население в строгое, консервативное, патриархальное общество. Они часть триумвирата Орион, который доживает свои последние дни, конфликтуя с растущим Альянсом. Устанавливая свой режим в этом секторе космоса, Альянс настойчиво стремится изменить лицо галактики…
Качество видео: AMZN.WEBRip-1080p
Формат видео: MKV
Видео: x264, 8801 кбит/с, 1920x1080, 25.000 к/с
Аудио 1: Русский DVO (AC3, 2 ch, 192 Кбит/с)
Аудио 2: Английский (EAC3, 2 ch)
Формат субтитров: softsub (SRT)
Работа над релизом:




Пример русского перевода
[vkontakte][/vkontakte]

MediaInfo

General
Unique ID : 191306987792065747217871850833893764407 (0x8FEC62B9093B883C80FCE82CB501AD37)
Complete name : F:\Torrent\Absolution.1997.1080p.AMZN.WEBRip.x264.mkv
Format : Matroska
Format version : Version 4
File size : 5.84 GiB
Duration : 1 h 30 min
Overall bit rate : 9 226 kb/s
Movie name : Absolution 1997
Encoded date : UTC 2020-04-14 12:46:56
Writing application : mkvmerge v41.0.0 ('Smarra') 64-bit
Writing library : libebml v1.3.9 + libmatroska v1.5.2
Cover : Yes
Attachments : Cover.png
Video
ID : 1
Format : AVC
Format/Info : Advanced Video Codec
Format profile : High@L4
Format settings : CABAC / 4 Ref Frames
Format settings, CABAC : Yes
Format settings, Reference fra : 4 frames
Codec ID : V_MPEG4/ISO/AVC
Duration : 1 h 30 min
Bit rate mode : Constant
Bit rate : 8 801 kb/s
Nominal bit rate : 10 000 kb/s
Width : 1 920 pixels
Height : 1 080 pixels
Display aspect ratio : 16:9
Frame rate mode : Constant
Frame rate : 25.000 FPS
Color space : YUV
Chroma subsampling : 4:2:0
Bit depth : 8 bits
Scan type : Progressive
Bits/(Pixel*Frame) : 0.170
Stream size : 5.58 GiB (95%)
Default : Yes
Forced : No
Color range : Limited
Color primaries : BT.709
Transfer characteristics : BT.709
Matrix coefficients : BT.709
Audio #1
ID : 2
Format : AC-3
Format/Info : Audio Coding 3
Commercial name : Dolby Digital
Codec ID : A_AC3
Duration : 1 h 30 min
Bit rate mode : Constant
Bit rate : 192 kb/s
Channel(s) : 2 channels
Channel layout : L R
Sampling rate : 48.0 kHz
Frame rate : 31.250 FPS (1536 SPF)
Compression mode : Lossy
Stream size : 125 MiB (2%)
Title : DVO
Language : Russian
Service kind : Complete Main
Default : No
Forced : No
Audio #2
ID : 3
Format : E-AC-3
Format/Info : Enhanced AC-3
Commercial name : Dolby Digital Plus
Codec ID : A_EAC3
Duration : 1 h 30 min
Bit rate mode : Constant
Bit rate : 224 kb/s
Channel(s) : 2 channels
Channel layout : L R
Sampling rate : 48.0 kHz
Frame rate : 31.250 FPS (1536 SPF)
Compression mode : Lossy
Stream size : 145 MiB (2%)
Language : English
Service kind : Complete Main
Default : Yes
Forced : No
Text #1
ID : 4
Format : UTF-8
Codec ID : S_TEXT/UTF8
Codec ID/Info : UTF-8 Plain Text
Duration : 1 h 24 min
Bit rate : 76 b/s
Count of elements : 2069
Stream size : 47.2 KiB (0%)
Language : English
Default : No
Forced : No
Text #2
ID : 5
Format : UTF-8
Codec ID : S_TEXT/UTF8
Codec ID/Info : UTF-8 Plain Text
Duration : 1 h 24 min
Bit rate : 80 b/s
Count of elements : 2159
Stream size : 49.6 KiB (0%)
Title : SDH
Language : English
Default : No
Forced : No

Скриншоты












Скринлист

Файл дополнительно залит на ОБЛАКО
[Profile] [PM]

pompilius

Gender: Male

Longevity: 2 years 8 months

Posts: 354

Post 28-May-2020 21:48 (after 1 month 14 days)

[Quote]

Раздайте или на облако залейте пожалуйста
[Profile] [PM]
Display posts:    
Reply to topic

Current time is: 03-Jul 22:46

All times are UTC + 3



You cannot post new topics in this forum
You cannot reply to topics in this forum
You cannot edit your posts in this forum
You cannot delete your posts in this forum
You cannot vote in polls in this forum
You cannot attach files in this forum
You cannot download files in this forum