Ночной полет / Nightflyers (Роберт Коллектор / Robert Collector) [1987 г., ужасы, фантастика, триллер, LDRip] ПМ (ИНИС), АО (А.Алексеев)

Reply to topic
DL-List and Torrent activity
Size:  1.32 GB   |    Registered:  6 years 11 months   |    Completed:  16 times

Seeder not seen: 6 months 1 day

 
   
 
 
 
Author Message

admin ®

Gender: Male

Longevity: 7 years 1 month

Posts: 4725

Location: Україна

Post 01-Nov-2012 03:19

[Quote]

Ночной полет / Nightflyers
Релиз - kosmoaelita. com
Год выпуска: 1987
Страна: США, Vista Organization
Жанр: ужасы, фантастика, триллер
Продолжительность: 01:29:20
Перевод: ПМ (ИНИС), АО (А.Алексеев)
Режиссер: Роберт Коллектор / Robert Collector
В ролях: Катрин Мэри Стюарт, Майкл Прейд, Джон Стэндинг, Лиза Блаунт, Гленн Уитроу, Джеймс Эйври, Хелен Уди, Аннабел Брукс, Майкл Де Барр
Описание: Группа исследователей арендует крутой звездолёт для научной космической экспедиции. Однако им невдомёк, что бортовой компьютер этого звездолёта оккупировал дух покойной матери его капитана
Качество: LDRip
Формат: MKV
Видео: x264, 1278 кбит/с, 720x552, 23.976 к/с, crf=18
Аудио 1: Русский студия ИНИС (AC3, 2 ch, 192 Кбит/с)
Аудио 2: Русский А.Алексеев (AC3, 2 ch, 192 Кбит/с)
Аудио 3: Английский (AC3, 2 ch, 192 Кбит/с)


Трейлер

Релиз

Релиз kosmoaelita.com
Рип с ремукса LD с CG и синх. русской ПМ дорожки - sasha20072007
Сравнение с рутрекером
Для Украины: рип и оригинальный ДВД5 дополнительно залиты в файлохранилище
Для удаления и добавления дорожек в mkv используйте бесплатную mkvmerge GUI 5.80

Дополнительно

слоган «Where they're headed isn't the mystery. What's taking them there is.»
Also Known As (AKA)
Nightflyer Hungary / West Germany
Lähtölaskenta kuolemaan Finland
Misteriose forme di vita Italy
Night Flyers UK (video box title)
Nightfliers Philippines (English title)
Nightflyers, la nave viviente Spain
Nocni najezdzcy Poland
Peripeteia sto diastima Greece (video title)
Zburatori de noapte Romania

MediaInfo

Общее
Уникальный идентификатор : 249623423757935139447281661754934118320 (0xBBCBB9007B18CA4685F215F7A92547B0)
Полное имя : F:\Ночной полет Nightflyers 1987.x264.LDRip.kosmoaelita.com.mkv
Формат : Matroska
Версия формата : Version 4 / Version 2
Размер файла : 1,32 Гбайт
Продолжительность : 1 ч. 29 м.
Общий поток : 2107 Кбит/сек
Название фильма : Ночной полет / Nightflyers / 1987 / rip by sasha20072007 (2012-11-01)
Дата кодирования : UTC 2010-02-22 21:41:31
Программа кодирования : mkvmerge v5.8.0 ('No Sleep / Pillow') built on Sep 30 2012 10:57:14
Библиотека кодирования : libebml v1.3.0 + libmatroska v1.4.0
Attachment : Yes / Yes / Yes
Видео
Идентификатор : 1
Формат : AVC
Формат/Информация : Advanced Video Codec
Профиль формата : High@L4.1
Параметр CABAC формата : Да
Параметр ReFrames формата : 8 кадров
Идентификатор кодека : V_MPEG4/ISO/AVC
Продолжительность : 1 ч. 29 м.
Битрейт : 1489 Кбит/сек
Ширина : 720 пикселей
Высота : 552 пикселя
Соотношение сторон : 4:3
Режим частоты кадров : Постоянный
Частота кадров : 23,976 кадра/сек
Цветовое пространство : YUV
Субдискретизация насыщенности : 4:2:0
Битовая глубина : 8 бит
Тип развёртки : Прогрессивная
Бит/(Пиксели*Кадры) : 0.156
Размер потока : 955 Мбайт (71%)
Библиотека кодирования : x264 core 125 r2208 d9d2288
Настройки программы : cabac=1 / ref=8 / deblock=1:-2:-1 / analyse=0x3:0x133 / me=umh / subme=10 / psy=1 / psy_rd=1.00:0.15 / mixed_ref=1 / me_range=24 / chroma_me=1 / trellis=2 / 8x8dct=1 / cqm=0 / deadzone=21,11 / fast_pskip=1 / chroma_qp_offset=-3 / threads=4 / lookahead_threads=1 / sliced_threads=0 / nr=0 / decimate=1 / interlaced=0 / bluray_compat=0 / constrained_intra=0 / bframes=8 / b_pyramid=2 / b_adapt=2 / b_bias=0 / direct=1 / weightb=1 / open_gop=0 / weightp=2 / keyint=220 / keyint_min=22 / scenecut=40 / intra_refresh=0 / rc_lookahead=60 / rc=crf / mbtree=1 / crf=18.0 / qcomp=0.60 / qpmin=0 / qpmax=69 / qpstep=4 / vbv_maxrate=17500 / vbv_bufsize=14000 / crf_max=0.0 / nal_hrd=none / ip_ratio=1.40 / aq=1:0.80
Default : Да
Forced : Нет
Аудио #1
Идентификатор : 2
Формат : AC-3
Формат/Информация : Audio Coding 3
Расширение режима : CM (complete main)
Параметр Endianness формата : Big
Идентификатор кодека : A_AC3
Продолжительность : 1 ч. 29 м.
Вид битрейта : Постоянный
Битрейт : 192 Кбит/сек
Каналы : 2 канала
Расположение каналов : Front: L R
Частота : 48,0 КГц
Битовая глубина : 16 бит
Метод сжатия : С потерями
Размер потока : 123 Мбайт (9%)
Заголовок : Русский ПМ (ИНИС)
Язык : Russian
Default : Да
Forced : Нет
Аудио #2
Идентификатор : 3
Формат : AC-3
Формат/Информация : Audio Coding 3
Расширение режима : CM (complete main)
Параметр Endianness формата : Big
Идентификатор кодека : A_AC3
Продолжительность : 1 ч. 29 м.
Вид битрейта : Постоянный
Битрейт : 192 Кбит/сек
Каналы : 2 канала
Расположение каналов : Front: L R
Частота : 48,0 КГц
Битовая глубина : 16 бит
Метод сжатия : С потерями
Задержка видео : 11 с.
Размер потока : 123 Мбайт (9%)
Заголовок : Русский АО (А.Алексеев)
Язык : Russian
Default : Нет
Forced : Нет
Аудио #3
Идентификатор : 4
Формат : AC-3
Формат/Информация : Audio Coding 3
Расширение режима : CM (complete main)
Параметр Endianness формата : Big
Идентификатор кодека : A_AC3
Продолжительность : 1 ч. 29 м.
Вид битрейта : Постоянный
Битрейт : 192 Кбит/сек
Каналы : 2 канала
Расположение каналов : Front: L R
Частота : 48,0 КГц
Битовая глубина : 16 бит
Метод сжатия : С потерями
Размер потока : 123 Мбайт (9%)
Язык : English
Default : Нет
Forced : Нет
Меню
00:00:00.000 : :Chapter 01
00:07:34.033 : :Chapter 02
00:11:44.100 : :Chapter 03
00:21:32.400 : :Chapter 04
00:24:23.201 : :Chapter 05
00:32:39.601 : :Chapter 06
00:36:29.335 : :Chapter 07
00:47:56.169 : :Chapter 08
01:00:55.836 : :Chapter 09
01:09:24.537 : :Chapter 10
01:16:58.937 : :Chapter 11
01:25:16.070 : :Chapter 12

Скриншоты



cd Рип дополнительно залит на mail.ru cd2
Ночной полет Nightflyers 1987.x264.LDRip.kosmoaelita.com.mkv.torrent
Torrent: Registered [ 2012-11-01 05:29 ]

Download .torrent

Download

53 KB

Status: checked
Completed: 16 times
Size: 1.32 GB
 


Last edited by admin on 2014-02-19 17:11; edited 4 times in total
[Profile] [PM]

Guest

Gender: Unknown

Post 01-Nov-2012 08:35 (after 5 hours)

[Quote]

Спасибо. Проф озвучка тут более нормальная наслух чем Алексеева bm
 

Guest

Gender: Unknown

Post 19-Feb-2014 13:27 (after 1 year 3 months)

[Quote]

http://cinemageddon.net/details.php?id=123613 ДВД5)
 

admin ®

Gender: Male

Longevity: 7 years 1 month

Posts: 4725

Location: Україна

Post 19-Feb-2014 17:28 (after 4 hours)

[Quote]

Там обычный раздутый с LD DVD
С которого и сделан данный рип.
Сможете отличить рип от двд?
http://screenshotcomparison.com/comparison/63356
(по секрету: чуть более четкий - рип)
Тоже относится и к другим вашим постам.
[Profile] [PM]
Display posts:    
Reply to topic

Current time is: 21-Oct 06:38

All times are UTC + 3



You cannot post new topics in this forum
You cannot reply to topics in this forum
You cannot edit your posts in this forum
You cannot delete your posts in this forum
You cannot vote in polls in this forum
You cannot attach files in this forum
You can download files in this forum