Мир теней / Shadow World / UFO Senshi Dai Apolon (Майкл Парт) [1983, США, Япония, фантастика, меха, VHSRip] [Полнометражная версия] АО (Трамвай-фильм)

Reply to topic
DL-List and Torrent activity
Size:  379 MB   |    Registered:  1 month 24 days   |    Completed:  2 times

Seeder not seen: 2 days 13 hours

 
   
 
 
 
Author Message

Трамвай-фильм ®

Gender: Male

Longevity: 5 years 9 months

Posts: 1834

Location: Россия

Post 08-Apr-2020 17:25

[Quote]

Мир теней / Shadow World / UFO Senshi Dai Apolon / Полнометражная версия
Страна: США, Япония
Жанр: фантастика, меха
Год выпуска: 1983
Продолжительность: 01:15:24
Перевод: Авторский (одноголосый, синхронный) Трамвай-фильм
Cубтитры: нет
Режиссер: Майкл Парт
В ролях: Ричард Росснер, Мона Маршалл, Грегг Бергер, Джон Х. Майер, Бункер Дженкинс, Пол Росс
Описание: Сирота Терри в день своего 16-летия узнает, что он пришелец с планеты Аполло, а его отец - король, был убит злым императором Дазоном.
Доп. информация: Мультфильм является американской версией многосерийного мультсериала UFO Senshi Dai Apolon (реально в полнометражку впрессовали 4 эпизода). Мультфильм выходил только на кассетах в США и другой англоязычной версии нет (поэтому за качество не пинать). Без купюр был показан в Италии, с японским сюжетом, без американских правок.
Будет интересен разве что коллекционерам и тем кто ностальгирует по видеосалонам.
Перевод - синхронный (т.е. переводил я с первого раза, на ходу, имейте в виду).
Качество видео: VHSRip
Формат видео: AVI
Видео: Xvid, 400x288, 29fps, 557kbps
Аудио: MP3, 44100Hz, stereo, 128kbps

MediaInfo

Format : AVI
Format/Info : Audio Video Interleave
File size : 379 MiB
Duration : 1 h 15 min
Overall bit rate : 703 kb/s
Video
ID : 0
Format : MPEG-4 Visual
Format profile : Simple@L3
Format settings, BVOP : No
Format settings, QPel : No
Format settings, GMC : No warppoints
Format settings, Matrix : Default (H.263)
Codec ID : XVID
Codec ID/Hint : XviD
Duration : 1 h 15 min
Bit rate : 557 kb/s
Width : 400 pixels
Height : 288 pixels
Display aspect ratio : 1.389
Frame rate : 29.970 (30000/1001) FPS
Original frame rate : 29.000 FPS
Color space : YUV
Chroma subsampling : 4:2:0
Bit depth : 8 bits
Scan type : Progressive
Compression mode : Lossy
Bits/(Pixel*Frame) : 0.161
Stream size : 301 MiB (79%)
Writing library : XviD 1.2.1 (UTC 2008-12-04)
Audio
ID : 1
Format : MPEG Audio
Format version : Version 1
Format profile : Layer 3
Format settings : Joint stereo / MS Stereo
Codec ID : 55
Codec ID/Hint : MP3
Duration : 1 h 15 min
Bit rate mode : Constant
Bit rate : 128 kb/s
Channel(s) : 2 channels
Sampling rate : 44.1 kHz
Compression mode : Lossy
Stream size : 69.0 MiB (18%)

Скриншоты




Файл дополнительно залит на ОБЛАКО
Shadow World.torrent
Torrent: Registered [ 2020-04-08 17:25 ]

Download .torrent

Download

15 KB

Status: checked
Completed: 2 times
Size: 379 MB
 
[Profile] [PM]
Display posts:    
Reply to topic

Current time is: 03-Jun 14:17

All times are UTC + 3



You cannot post new topics in this forum
You cannot reply to topics in this forum
You cannot edit your posts in this forum
You cannot delete your posts in this forum
You cannot vote in polls in this forum
You cannot attach files in this forum
You can download files in this forum