Принцип сингулярности / Singularity Principle (Дэвид Роберт Дэраниан, Остин Роберт Хайнс / David Robert Deranian, Austin Robert Hines) [2013, США, Канада, Багамы, Австралия, фантастика, Sci-Fi, WEBRip 720p] АО (Вячеслав Котов) + Original Eng

Reply to topic
 
Author Message

Darth_47 ®

Gender: Male

Longevity: 1 year 4 months

Posts: 696

Post 07-Apr-2020 18:15

[Quote]

Принцип сингулярности / Singularity Principle
Страна: США, Канада, Багамы, Австралия
Жанр: фантастика, Sci-Fi
Год выпуска: 2013
Продолжительность: 01:27:40
Перевод: Авторский (одноголосый закадровый) Вячеслав Котов
Режиссеры: Дэвид Роберт Дэраниан, Остин Роберт Хайнс / David Robert Deranian, Austin Robert Hines
В ролях: Уильям Б. Дэвис, Майкл Дэнис, Джон Дил, Эми ЛоЦицеро, Adam Formanek, Даррен Тумбс, Скотт Асмар, Mike De Jong, Christine Krowchenko, Кристиан МакКарти-Описание: "Принцип сингулярности" - это художественный научно-фантастический фильм про последствия необдуманных экспериментов с Параллельными Вселенными. Написанный (в соавторстве с Остином Хайнсом) и срежиссированный физиком доктором Девидом Деренианом, фильм уделяет скрупулезное внимание достоверным научным фактам и добавляет увлекательные теории о параллельных вселенных, что в итоге выливается для зрителя в познавательное и одновременно интересное кино. История начинается с исчезновения известного ученого, профессора Джека Бреннера, в ходе судьбоносного эксперимента с параллельными вселенными.

-Релиз

Работа над релизом:
Видеоряд скачан с tubitv.com
Перевод и озвучка на русский - Вячеслав Котов
Спонсоры - Darth_47, kosmoaelita, snorrinort, 4st, Faer, alien_egg, PonchoUsatiy, Ввикторрр, marsel84, pompilius, pcevm, archestrategos
Сборка релиза - Darth_47
-Качество видео: WEBRip 720p
Формат видео: MKV
Видео: MPEG4 Video (H264) 1280x716 23.976fps 1912 kb/s
Аудио 1: Dolby AC3 48000Hz stereo 192kbps Русский АО (Вячеслав Котов)
Аудио 2: Dolby AC3 48000Hz stereo 192kbps English-

MediaInfo

General
Unique ID                      : 249831990183390095793700401439736592559 (0xBBF3E41EDE269DC6B021EBCBC7CFF8AF)
Complete name                  : Singularity Principle 2013.x264.WEBRip.720p.Rus.kosmoaelita.mkv
Format                         : Matroska
Format version                 : Version 1
File size                      : 1.43 GiB
Duration                       : 1 h 27 min
Overall bit rate               : 2 342 kb/s
Encoded date                   : UTC 2020-04-07 14:33:47
Writing application            : mkvmerge v2.4.2 ('Oh My God') built on Jan 18 2009 17:30:28
Writing library                : libebml v0.7.7 + libmatroska v0.8.1
Video
ID                             : 1
Format                         : AVC
Format/Info                    : Advanced Video Codec
Format profile                 : High@L4
Format settings                : CABAC / 4 Ref Frames
Format settings, CABAC         : Yes
Format settings, Reference fra : 4 frames
Codec ID                       : V_MPEG4/ISO/AVC
Duration                       : 1 h 27 min
Bit rate                       : 1 912 kb/s
Width                          : 1 280 pixels
Height                         : 716 pixels
Display aspect ratio           : 16:9
Frame rate mode                : Constant
Frame rate                     : 23.976 (24000/1001) FPS
Color space                    : YUV
Chroma subsampling             : 4:2:0
Bit depth                      : 8 bits
Scan type                      : Progressive
Bits/(Pixel*Frame)             : 0.087
Stream size                    : 1.17 GiB (82%)
Title                          : kosmoaelita
Writing library                : x264 core 148 r2643 5c65704
Encoding settings              : cabac=1 / ref=4 / deblock=1:0:0 / analyse=0x3:0x113 / me=umh / subme=8 / psy=1 / psy_rd=1.00:0.00 / mixed_ref=1 / me_range=16 / chroma_me=1 / trellis=0 / 8x8dct=1 / cqm=0 / deadzone=21,11 / fast_pskip=1 / chroma_qp_offset=-2 / threads=22 / lookahead_threads=5 / sliced_threads=0 / nr=0 / decimate=1 / interlaced=0 / bluray_compat=0 / constrained_intra=0 / bframes=4 / b_pyramid=2 / b_adapt=2 / b_bias=0 / direct=3 / weightb=1 / open_gop=0 / weightp=2 / keyint=96 / keyint_min=48 / scenecut=40 / intra_refresh=0 / rc_lookahead=40 / rc=crf / mbtree=1 / crf=1.0 / qcomp=0.60 / qpmin=0 / qpmax=69 / qpstep=4 / vbv_maxrate=2400 / vbv_bufsize=2400 / crf_max=0.0 / nal_hrd=none / filler=0 / ip_ratio=1.41 / aq=1:1.00
Language                       : English
Default                        : Yes
Forced                         : No
Statistics Tags Issue          : mkvmerge v35.0.0 ('All The Love In The World') 64-bit 2020-03-20 21:06:25 / mkvmerge v2.4.2 ('Oh My God') built on Jan 18 2009 17:30:28 2020-04-07 14:33:47
FromStats_BitRate              : 1954927
FromStats_Duration             : 01:27:39.880000000
FromStats_FrameCount           : 126111
FromStats_StreamSize           : 1285335407
Audio #1
ID                             : 2
Format                         : AC-3
Format/Info                    : Audio Coding 3
Commercial name                : Dolby Digital
Codec ID                       : A_AC3
Duration                       : 1 h 27 min
Bit rate mode                  : Constant
Bit rate                       : 192 kb/s
Channel(s)                     : 2 channels
Channel layout                 : L R
Sampling rate                  : 48.0 kHz
Frame rate                     : 31.250 FPS (1536 SPF)
Compression mode               : Lossy
Delay relative to video        : -83 ms
Stream size                    : 120 MiB (8%)
Title                          : Русский АО (Вячеслав Котов для kosmoaelita.com)
Language                       : Russian
Service kind                   : Complete Main
Default                        : Yes
Forced                         : No
Audio #2
ID                             : 3
Format                         : AC-3
Format/Info                    : Audio Coding 3
Commercial name                : Dolby Digital
Codec ID                       : A_AC3
Duration                       : 1 h 27 min
Bit rate mode                  : Constant
Bit rate                       : 192 kb/s
Channel(s)                     : 2 channels
Channel layout                 : L R
Sampling rate                  : 48.0 kHz
Frame rate                     : 31.250 FPS (1536 SPF)
Compression mode               : Lossy
Delay relative to video        : -83 ms
Stream size                    : 120 MiB (8%)
Language                       : English
Service kind                   : Complete Main
Default                        : No
Forced                         : No

Скриншоты










[Profile] [PM]

Darth_47 ®

Gender: Male

Longevity: 1 year 4 months

Posts: 696

Post 08-Apr-2020 00:49 (after 6 hours)

[Quote]

Классный фильм, мне понравился! Никаких особых спецэффектов тут нет, так что я бы назвал это жанром "разговорной фантастики". Но написана и подана история очень круто, ни капли не жалею, что мы заказали перевод.
Правда, я не совсем понял концовку. Те, кто не смотрел фильм и не хочет испортить себе впечатление, не открывайте спойлер.
Питер в конце фильма оказывается на пляже, на котором, судя по всему, молодой Джек со своей девушкой. Но их не может существовать во вселенной Питера. Получается, Питер оказался в альтернативной (не своей) вселенной. Но ведь Джек исправил все, стерев себя из нашей вселенной, в результате чего у нас все пришло в норму. Что-то башка кругом идет) Может кто лучше понял, объясните, пожалуйста.
[Profile] [PM]

4st

Gender: Unknown

Longevity: 1 year 2 months

Posts: 70

Post 18-Sep-2020 21:29 (after 5 months 10 days)

[Quote]

У меня вообще возникла мысль, что Джек - это Питер и есть.
[Profile] [PM]
Display posts:    
Reply to topic

Current time is: 29-Sep 02:49

All times are UTC + 3



You cannot post new topics in this forum
You cannot reply to topics in this forum
You cannot edit your posts in this forum
You cannot delete your posts in this forum
You cannot vote in polls in this forum
You cannot attach files in this forum
You cannot download files in this forum