Куотермасс 2 / Quatermass 2 / Quatermass II / Quatermass II: Enemy from Space (Вэл Гест / Val Guest) [1957 г., Ужасы, фантастика, BDRip-720p] ПМ (Лексикон), ЛО (А.Бессонов), СТ (Алексей Широкий)

Reply to topic
 
Author Message

admin ®

Gender: Male

Longevity: 7 years

Posts: 4725

Location: Україна

Post 31-Oct-2012 22:45

[Quote]

Куотермасс 2 / Quatermass 2 / Quatermass II / Quatermass II: Enemy from Space
Год выпуска: 1957
Страна: Великобритания, Hammer Film Productions Limited
Жанр: Ужасы, фантастика
Продолжительность: 01:21:09
Перевод: ПМ (Лексикон), ЛО (А.Бессонов)
Режиссер: Вэл Гест / Val Guest
В ролях: Брайан Донлеви, Джон Лонгден, Сид Джеймс, Брайан Форбс, Уильям Франклин, Вера Дэй, Чарльз Ллойд Пэк, Том Чатто, Джон Ван Эйссен, Перси Херберт
Описание: Фильм студии “Хаммер”. Известен в миру также, как “Враг из космоса”. Ночь. Темнота. Профессор Бернард Куотермасс возвращается в свою обсерваторию. Его машина неожиданно сталкивается с машиной в которой находится ошалелый молодой человек, которого ранил странный предмет, упавший с неба. Куотермасс вспоминает об аналогичном происшествии, которое случилось неподалёку. Он подбирает кусочек предмета и продолжает свой путь, отправив молодого человека в госпиталь. В обсерватории, между тем, его ассистент Брэнд наблюдает падение таинственных объектов на радарном экране. Что это? И что будет?
Профессор Куотермасс получает известие о метеоритном дожде, прошедшем над отдалённым районом Англии. Приехав туда вместе с коллегой Маршем, Куотермасс обнаруживает в глуши большой и хорошо охраняющийся научный комплекс, а позже находит и один из метеоритов. Когда Марш оказывается ранен выделившимся из метеорита веществом, со стороны комплекса приезжают вооружённые люди и безо всяких объяснений забирают Марша с собой. После этого Куотермасс решает разузнать, чем именно занимаются работающие в этом месте учёные

Качество: BDRip-720p
Формат: MKV
Видео: x264, 5129 кбит/с, 976x720, 25 к/с
Аудио 1: Русский ПМ (Лексикон) (AC3, 2 ch, 192 Кбит/с)
Аудио 2: Русский ЛО (Бессонов) (AC3, 2 ch, 192 Кбит/с)
Аудио 3: Английский (AC3, 2 ch, 384 Кбит/с)
Аудио 4: Немецкий (AC3, 2 ch, 192 Кбит/с)
Аудио 5: Английский Comment (AC3, 2 ch, 192 Кбит/с)
Субтитры : Русские (Алексей Широкий), немецкие
Работа над релизом:
Видеоряд найден на Синемагеддоне
Русский ПМ перевод - студия Лексикон по заказу кинокомпании Парадиз
Синхронизация русских дорожек - kosmoaelita



Дополнительно

слоган «A horrible enemy from the unknown strikes terror across the earth!»
бюджет £92 000
Also Known As (AKA)
Enemy from Space USA
Feinde aus dem Nichts West Germany
I vampiri dello spazio Italy
La marque France
O Inimigo do Espaço Portugal
Quatermass 2: Exogiinoi eisvoleis Greece (DVD title)
Quatermass II: Enemy from Space USA (imdb display title)
Vihollinen avaruudesta Finland

MediaInfo

Общее
Уникальный идентификатор : 247072197925909558168134061162546087069 (0xB9E05FDB5F58C31AB8ED1F76131C449D)
Полное имя : F:\Quatermass 2 Enemy From Space 1957.x264.BDRip.720p.2xRus.kosmoaelita.mkv
Формат : Matroska
Версия формата : Version 4 / Version 2
Размер файла : 3,56 Гбайт
Продолжительность : 1 ч. 21 м.
Общий поток : 6290 Кбит/сек
Название фильма : Quatermass 2 Enemy From Space 1957.x264.BDRip.720p
Дата кодирования : UTC 2016-06-05 00:53:40
Программа кодирования : mkvmerge v6.6.0 ('The Edge Of The In Between') built on Dec 1 2013 17:55:00
Библиотека кодирования : libebml v1.3.0 + libmatroska v1.4.1
Attachments : Poster.jpg
Видео
Идентификатор : 1
Формат : AVC
Формат/Информация : Advanced Video Codec
Профиль формата : High@L4.1
Параметр CABAC формата : Да
Параметр ReFrames формата : 5 кадров
Идентификатор кодека : V_MPEG4/ISO/AVC
Продолжительность : 1 ч. 21 м.
Битрейт : 5129 Кбит/сек
Ширина : 976 пикселей
Высота : 720 пикселей
Соотношение сторон : 4:3
Режим частоты кадров : Постоянный
Частота кадров : 25,000 кадров/сек
Цветовое пространство : YUV
Субдискретизация насыщенности : 4:2:0
Битовая глубина : 8 бит
Тип развёртки : Прогрессивная
Бит/(Пиксели*Кадры) : 0.292
Размер потока : 2,84 Гбайт (80%)
Заголовок : kosmoaelita
Библиотека кодирования : x264 core 142 r2431 ac76440
Настройки программы : cabac=1 / ref=5 / deblock=1:0:0 / analyse=0x3:0x113 / me=umh / subme=8 / psy=1 / psy_rd=1.00:0.00 / mixed_ref=1 / me_range=16 / chroma_me=1 / trellis=1 / 8x8dct=1 / cqm=0 / deadzone=21,11 / fast_pskip=1 / chroma_qp_offset=-2 / threads=12 / lookahead_threads=2 / sliced_threads=0 / nr=0 / decimate=1 / interlaced=0 / bluray_compat=0 / constrained_intra=0 / bframes=3 / b_pyramid=2 / b_adapt=2 / b_bias=0 / direct=3 / weightb=1 / open_gop=0 / weightp=2 / keyint=250 / keyint_min=25 / scenecut=40 / intra_refresh=0 / rc_lookahead=50 / rc=2pass / mbtree=1 / bitrate=5129 / ratetol=1.0 / qcomp=0.60 / qpmin=0 / qpmax=69 / qpstep=4 / cplxblur=20.0 / qblur=0.5 / vbv_maxrate=62500 / vbv_bufsize=78125 / nal_hrd=none / filler=0 / ip_ratio=1.40 / aq=1:1.00
Язык : English
Default : Да
Forced : Нет
Аудио #1
Идентификатор : 2
Формат : AC-3
Формат/Информация : Audio Coding 3
Расширение режима : CM (complete main)
Параметр Endianness формата : Big
Идентификатор кодека : A_AC3
Продолжительность : 1 ч. 21 м.
Вид битрейта : Постоянный
Битрейт : 192 Кбит/сек
Каналы : 2 канала
Расположение каналов : Front: L R
Частота : 48,0 КГц
Частота кадров : 31,250 кадров/сек (1536 spf)
Метод сжатия : С потерями
Размер потока : 111 Мбайт (3%)
Заголовок : Русский ПМ (Лексикон) по заказу кинокомпании Парадиз
Язык : Russian
Default : Да
Forced : Нет
Аудио #2
Идентификатор : 3
Формат : AC-3
Формат/Информация : Audio Coding 3
Расширение режима : CM (complete main)
Параметр Endianness формата : Big
Идентификатор кодека : A_AC3
Продолжительность : 1 ч. 21 м.
Вид битрейта : Постоянный
Битрейт : 192 Кбит/сек
Каналы : 2 канала
Расположение каналов : Front: L R
Частота : 48,0 КГц
Частота кадров : 31,250 кадров/сек (1536 spf)
Метод сжатия : С потерями
Размер потока : 111 Мбайт (3%)
Заголовок : Русский АО (Андрей Бессонов)
Язык : Russian
Default : Нет
Forced : Нет
Аудио #3
Идентификатор : 4
Формат : AC-3
Формат/Информация : Audio Coding 3
Расширение режима : CM (complete main)
Параметр Endianness формата : Big
Идентификатор кодека : A_AC3
Продолжительность : 1 ч. 21 м.
Вид битрейта : Постоянный
Битрейт : 384 Кбит/сек
Каналы : 2 канала
Расположение каналов : Front: L R
Частота : 48,0 КГц
Частота кадров : 31,250 кадров/сек (1536 spf)
Метод сжатия : С потерями
Размер потока : 223 Мбайт (6%)
Язык : English
Default : Нет
Forced : Нет
Аудио #4
Идентификатор : 5
Формат : AC-3
Формат/Информация : Audio Coding 3
Расширение режима : CM (complete main)
Параметр Endianness формата : Big
Идентификатор кодека : A_AC3
Продолжительность : 1 ч. 21 м.
Вид битрейта : Постоянный
Битрейт : 192 Кбит/сек
Каналы : 2 канала
Расположение каналов : Front: L R
Частота : 48,0 КГц
Частота кадров : 31,250 кадров/сек (1536 spf)
Метод сжатия : С потерями
Размер потока : 111 Мбайт (3%)
Язык : German
Default : Нет
Forced : Нет
Аудио #5
Идентификатор : 6
Формат : AC-3
Формат/Информация : Audio Coding 3
Расширение режима : CM (complete main)
Параметр Endianness формата : Big
Идентификатор кодека : A_AC3
Продолжительность : 1 ч. 21 м.
Вид битрейта : Постоянный
Битрейт : 192 Кбит/сек
Каналы : 2 канала
Расположение каналов : Front: L R
Частота : 48,0 КГц
Частота кадров : 31,250 кадров/сек (1536 spf)
Метод сжатия : С потерями
Размер потока : 111 Мбайт (3%)
Заголовок : Comment Eng
Язык : English
Default : Нет
Forced : Нет
Текст #1
Идентификатор : 7
Формат : UTF-8
Идентификатор кодека : S_TEXT/UTF8
Идентификатор кодека/Информация : UTF-8 Plain Text
Заголовок : Русский (Андрей Широкий) - перевод с англ. субт
Язык : Russian
Default : Да
Forced : Нет
Текст #2
Идентификатор : 8
Формат : VobSub
Режим смешивания : zlib
Идентификатор кодека : S_VOBSUB
Идентификатор кодека/Информация : Picture based subtitle format used on DVDs
Язык : German
Default : Нет
Forced : Нет
Текст #3
Идентификатор : 9
Формат : VobSub
Режим смешивания : zlib
Идентификатор кодека : S_VOBSUB
Идентификатор кодека/Информация : Picture based subtitle format used on DVDs
Язык : German
Default : Нет
Forced : Нет

Скриншоты












Скринлист

cd Рип дополнительно залит на ОБЛАКО cd2


Last edited by admin on 2016-06-05 04:10; edited 8 times in total
[Profile] [PM]

admin ®

Gender: Male

Longevity: 7 years

Posts: 4725

Location: Україна

Post 05-Jun-2016 04:05 (after 3 years 7 months)

[Quote]

DVDRip заменен на на BDRip-720p
[Profile] [PM]
Quick Reply

Name:

            
Heads necessary to send messages to enable JavaScript
Display posts:    
Reply to topic

Current time is: 22-Sep 09:52

All times are UTC + 3



You cannot post new topics in this forum
You can reply to topics in this forum
You cannot edit your posts in this forum
You cannot delete your posts in this forum
You cannot vote in polls in this forum
You cannot attach files in this forum
You cannot download files in this forum