Don't Turn Me Off / Не выключай меня [Short] [2017, Чехия, ужасы WEB-DL 2160p] ЛО (Хелис) СТ (Mr.Faer)

Reply to topic
 
Author Message

Faer ®

Gender: Male

Longevity: 5 years 8 months

Posts: 454

Post 26-Mar-2020 19:46

[Quote]

Don't Turn Me Off / Не выключай меня
Страна: Чехия
Жанр: ужасы
Год выпуска: 2017
Продолжительность: 00:05:34
Перевод: Субтитры (Mr.Faer), ЛО Хелис
Режиссер: Син ван Лейженхорст
В ролях: Рашид Белт, Эстель Боргос, Барбора Янова
Описание:Когда женщина решает выключить старый фильм ужасов, в доме начинается необъяснимое...

Качество видео: WEB-DL 2160p
Формат: MKV
Видео: VP9, 3840x1608, 2.40:1, 25fps, 4175 Кбит/с
Аудио 1: Русский ЛО (Хелис) (AC3, 48КгЦ, 192 Кбит/с, стерео)
Аудио 2: Английский (AC3, 48КгЦ, 192 Кбит/с, стерео)
Субтитры: русские [Mr.Faer]
Работа над релизом:
Перевод: Mr.Faer
Редактор: B.Condor
Озвучивание: Хелис

MediaInfo

Общее
Уникальный идентификатор : 288138129685551117030315240872829398763 (0xD8C5629CFFB9E683831DE9403F862EEB)
Полное имя : C:\Users\Professional\Desktop\Don't Turn Me Off.mkv
Формат : Matroska
Версия формата : Version 4
Размер файла : 179 Мбайт
Продолжительность : 5 м. 34 с.
Общий поток : 4480 Кбит/сек
Дата кодирования : UTC 2020-03-26 16:48:54
Программа кодирования : mkvmerge v25.0.0 ('Prog Noir') 64-bit
Библиотека кодирования : libebml v1.3.6 + libmatroska v1.4.9
Видео
Идентификатор : 1
Формат : VP9
Идентификатор кодека : V_VP9
Продолжительность : 5 м. 34 с.
Битрейт : 4175 Кбит/сек
Ширина : 3840 пикселей
Высота : 1608 пикселей
Соотношение сторон : 2,40:1
Режим частоты кадров : Постоянный
Частота кадров : 25,000 кадров/сек
Цветовое пространство : YUV
Бит/(Пиксели*Кадры) : 0.027
Размер потока : 167 Мбайт (93%)
Язык : English
Default : Да
Forced : Нет
Цветовой диапазон : Limited
Основные цвета : BT.709
Характеристики трансфера : BT.709
Коэффициенты матрицы : BT.601
Аудио #1
Идентификатор : 2
Формат : MPEG Audio
Версия формата : Version 1
Профиль формата : Layer 3
Идентификатор кодека : A_MPEG/L3
Идентификатор кодека/Подсказка : MP3
Продолжительность : 5 м. 34 с.
Вид битрейта : Постоянный
Битрейт : 112 Кбит/сек
Каналы : 2 канала
Частота : 48,0 КГц
Частота кадров : 41,667 кадра/сек (1152 SPF)
Метод сжатия : С потерями
Размер потока : 4,47 Мбайт (2%)
Язык : English
Default : Нет
Forced : Нет
Аудио #2
Идентификатор : 3
Формат : AC-3
Формат/Информация : Audio Coding 3
Коммерческое название : Dolby Digital
Идентификатор кодека : A_AC3
Продолжительность : 5 м. 34 с.
Вид битрейта : Постоянный
Битрейт : 192 Кбит/сек
Каналы : 2 канала
ChannelLayout : L R
Частота : 48,0 КГц
Частота кадров : 31,250 кадров/сек (1536 SPF)
Метод сжатия : С потерями
Размер потока : 7,66 Мбайт (4%)
Язык : Russian
ServiceKind/String : Complete Main
Default : Да
Forced : Нет
Текст
Идентификатор : 4
Формат : UTF-8
Идентификатор кодека : S_TEXT/UTF8
Идентификатор кодека/Информация : UTF-8 Plain Text
Продолжительность : 1 м. 44 с.
Битрейт : 13 бит/сек
ElementCount : 7
Размер потока : 171 байт (0%)
Язык : Russian
Default : Да
Forced : Нет

Скриншоты




Файл дополнительно залит на ОБЛАКО
[Profile] [PM]
Display posts:    
Reply to topic

Current time is: 25-Sep 16:47

All times are UTC + 3



You can post new topics in this forum
You cannot reply to topics in this forum
You cannot edit your posts in this forum
You cannot delete your posts in this forum
You cannot vote in polls in this forum
You cannot attach files in this forum
You can download files in this forum