Эй, вы там снизу! / Hello Down There (Джек Арнольд / Jack Arnold, Рику Браунинг / Ricou Browning) [1969, США, фантастика, комедия, WEBRip-1080p] ПМ (Paramount Channel)

Reply to topic
 
Author Message

kosmoaelita ®

Gender: Male

Longevity: 8 years 2 months

Posts: 1705

Post 21-Mar-2020 21:53

[Quote]

Эй, вы там снизу! / Hello Down There
Страна: США, Ivan Tors Productions
Жанр: фантастика, комедия, музыкальный
Год выпуска: 1969
Продолжительность: 01:37:22
Перевод : Профессиональный (многоголосый) Paramount Channel
Режиссер: Джек Арнольд / Jack Arnold, Рику Браунинг / Ricou Browning
В ролях:
Tony Randall ... Fred Miller
Janet Leigh ... Vivian Miller
Roddy McDowall ... Nate Ashbury
Jim Backus ... T.R. Hollister
Ken Berry ... Mel Cheever
Charlotte Rae ... Myrtle Ruth
Kay Cole ... Lorrie Miller
Richard Dreyfuss ... Harold Webster
Lou Wagner ... Marvin Webster
Gary Tigerman ... Tommie Miller
Arnold Stang ... Jonah
Harvey Lembeck ... Sonarman
Merv Griffin ... Himself
Lee Meredith ... Dr. Wells
Bruce Gordon ... Adm. Sheridan
Описание: В центре этой фантастической комедии – ученый, который столкнувшись с угрозой потери финансирования, океанолог решает поселиться вместе со своей семьёй в спроектированном им подводном жилище, чтобы доказать его практичность. Им приходится противостоять инженеру, который планирует начать в этой области дна добычу полезных ископаемых.
Качество видео: WEBRip-1080p
Формат: MKV
Видео: x264, 7000 кбит/с, 1920x1080, 23.976 к/с
Аудио 1: Русский ПМ (AC3, 2 ch, 224 Кбит/с)
Аудио 2: Английский (AC3, 2 ch, 256 Кбит/с)
Субтитры : английские
Работа над релизом:
Видеоряд найден на rarbg2018.org
Синхронизация русской дорожки - kosmoaelita



Пример русского перевода

Дополнительно

слоган «A combo of scuba dupes rock up a storm in a mad pad under the surf!»
Also Known As (AKA)
(original title) Hello Down There
Brazil Uma Casa como Poucas
Italy L'incredibile casa in fondo al mare
Portugal A Casa Foi ao Fundo
USA (reissue title) Sub-A-Dub-Dub

Отзывы

Хорошая задумка, и мог бы получиться отличный фильм! Даже актеров неплохо подобрали. Но загубили идею плохим ее исполнением. Фильм получился неинтересный, безтолковый. Потеря времени.
----------------------
Спасибо за весёленькую комедию с Джанет Ли, Тони Рэндалл, Джим Бэкуса, Кен Берри, Родди МакДауэлл, Ричард Дрейфусс, Кей Коул, Лу Вагнер, Ли Мередит, Брюс Гордон, Фрэнк Шуллер…и т.д. и т.п.

Рецензия

MediaInfo

Общее
Уникальный идентификатор : 197059783075832860816188765507018902014 (0x9440556DC1FA2E8EAFFD6AD2E7F549FE)
Полное имя : Hello Down There 1969.x264.WEBRip.1080p.Rus.kosmoaelita.mkv
Формат : Matroska
Версия формата : Version 4
Размер файла : 5,09 Гбайт
Продолжительность : 1 ч. 37 м.
Общий поток : 7483 Кбит/сек
Название фильма : Эй, вы там снизу! / Hello Down There / 1969 / kosmoaelita.com
Дата кодирования : UTC 2020-03-22 08:01:41
Программа кодирования : mkvmerge v6.6.0 ('The Edge Of The In Between') built on Dec 1 2013 17:55:00
Библиотека кодирования : libebml v1.3.0 + libmatroska v1.4.1
Attachments : poster.jpg
Видео
Идентификатор : 1
Формат : AVC
Формат/Информация : Advanced Video Codec
Профиль формата : High@L4.1
Настройки формата : CABAC / 4 Ref Frames
Параметр CABAC формата : Да
Параметр RefFrames формата : 4 кадра
Идентификатор кодека : V_MPEG4/ISO/AVC
Продолжительность : 1 ч. 37 м.
Битрейт : 7000 Кбит/сек
Ширина : 1920 пикселей
Высота : 1080 пикселей
Соотношение сторон : 16:9
Режим частоты кадров : Постоянный
Частота кадров : 23,976 кадра/сек
Цветовое пространство : YUV
Субдискретизация насыщенности : 4:2:0
Битовая глубина : 8 бит
Тип развёртки : Прогрессивная
Бит/(Пиксели*Кадры) : 0.141
Размер потока : 4,66 Гбайт (92%)
Заголовок : http://kosmoaelita.com/viewtopic.php?t=3074
Библиотека кодирования : x264 core 130 r2273 b3065e6
Настройки программы : cabac=1 / ref=4 / deblock=1:-2:-2 / analyse=0x3:0x131 / me=umh / subme=9 / psy=1 / psy_rd=0.99:0.14 / mixed_ref=1 / me_range=32 / chroma_me=1 / trellis=2 / 8x8dct=1 / cqm=0 / deadzone=21,11 / fast_pskip=1 / chroma_qp_offset=-3 / threads=6 / lookahead_threads=1 / sliced_threads=0 / nr=0 / decimate=1 / interlaced=0 / bluray_compat=0 / constrained_intra=0 / bframes=8 / b_pyramid=2 / b_adapt=2 / b_bias=0 / direct=3 / weightb=1 / open_gop=0 / weightp=2 / keyint=210 / keyint_min=21 / scenecut=40 / intra_refresh=0 / rc_lookahead=80 / rc=2pass / mbtree=1 / bitrate=7000 / ratetol=1.0 / qcomp=0.65 / qpmin=0 / qpmax=69 / qpstep=4 / cplxblur=20.0 / qblur=0.5 / ip_ratio=1.25 / aq=1:0.90
Язык : English
Default : Да
Forced : Нет
Цветовой диапазон : Limited
Основные цвета : BT.709
Характеристики трансфера : BT.709
Коэффициенты матрицы : BT.709
Аудио #1
Идентификатор : 2
Формат : AC-3
Формат/Информация : Audio Coding 3
Коммерческое название : Dolby Digital
Идентификатор кодека : A_AC3
Продолжительность : 1 ч. 37 м.
Вид битрейта : Постоянный
Битрейт : 224 Кбит/сек
Каналы : 2 канала
ChannelLayout : L R
Частота : 48,0 КГц
Частота кадров : 31,250 кадров/сек (1536 SPF)
Метод сжатия : С потерями
Размер потока : 156 Мбайт (3%)
Заголовок : Русский ПМ (Paramount Channel)
Язык : Russian
ServiceKind/String : Complete Main
Default : Да
Forced : Нет
Аудио #2
Идентификатор : 3
Формат : AC-3
Формат/Информация : Audio Coding 3
Коммерческое название : Dolby Digital
Идентификатор кодека : A_AC3
Продолжительность : 1 ч. 37 м.
Вид битрейта : Постоянный
Битрейт : 256 Кбит/сек
Каналы : 2 канала
ChannelLayout : L R
Частота : 48,0 КГц
Частота кадров : 31,250 кадров/сек (1536 SPF)
Метод сжатия : С потерями
Размер потока : 178 Мбайт (3%)
Язык : English
ServiceKind/String : Complete Main
Default : Нет
Forced : Нет
Текст #1
Идентификатор : 4
Формат : UTF-8
Идентификатор кодека : S_TEXT/UTF8
Идентификатор кодека/Информация : UTF-8 Plain Text
Заголовок : Fors. for Songs
Язык : English
Default : Да
Forced : Нет
Текст #2
Идентификатор : 5
Формат : UTF-8
Идентификатор кодека : S_TEXT/UTF8
Идентификатор кодека/Информация : UTF-8 Plain Text
Язык : English
Default : Нет
Forced : Нет

Скриншоты

















Скринлист

Файл дополнительно залит на ОБЛАКО


Last edited by kosmoaelita on 2020-03-22 11:25; edited 5 times in total
[Profile] [PM]

kosmoaelita ®

Gender: Male

Longevity: 8 years 2 months

Posts: 1705

Post 21-Mar-2020 22:48 (after 54 minutes)

[Quote]

Фантастикой это трудно назвать.
Музыкальная легкая комедия.
[Profile] [PM]
Display posts:    
Reply to topic

Current time is: 30-Nov 01:17

All times are UTC + 3



You cannot post new topics in this forum
You cannot reply to topics in this forum
You cannot edit your posts in this forum
You cannot delete your posts in this forum
You cannot vote in polls in this forum
You cannot attach files in this forum
You cannot download files in this forum