Планетарный патруль / Planet Patrol (Russ Mazzolla) [1999, США, Фантастика, семейный, VHSRip] АО (Horror Maker)

Reply to topic
 
Author Message

kosmoaelita ®

Gender: Male

Longevity: 7 years 7 months

Posts: 1408

Post 21-Mar-2020 14:44

[Quote]

Планетарный патруль / Planet Patrol
Релиз - kosmoaelita.com
Страна: США
Жанр: Фантастика, семейный
Год выпуска: 1999
Продолжительность: 01:12:14
Перевод : Авторский (одноголосый) Horror Maker
Режиссер: Russ Mazzolla /
В ролях:
Peter Barent Lewis ... Fierson
Colin Campbell ... Curator
Matt Corboy ... Technician / Shape Machine
Michael David
John R. Ellis ... Computer (voice)
John Paul Fedele ... Kraa (as John Fedele)
Robert J. Ferrelli ... Monroe
Anthony Furlong ... Patrolman Garth
Alison Lohman ... Patrolman Curtis
Teal Marchande ... Alma James
Stephen Martines ... (as Coltin Scott)
Описание: Спин-офф фильма The Sea Monster (1998)
Четверо членов межгалактической полицейской службы Планет Патрол сражаются против попыток захвата планет Лордом Думом и его подручным карликом. После того, как Лорд Дум крадёт ценный артефакт из Музея, он пытается уничтожить все цивилизации на Земле , отправив туда гигантского монстра Краа. Дум заперт в подземельях своей холодной планеты и ищет место потеплее, вроде Земли. Дум также берёт гигантского робота-паука на другую планету, и Планет Патрол должен поторопиться, чтобы остановить его.

Качество видео: VHSRip
Формат: MKV
Видео: XviD, 1751 кбит/с, 620x476, 23.976 к/с
Аудио 1: Русский АО (Horror Maker) (AC3, 2 ch, 192 Кбит/с)
Аудио 2: Английский (AC3, 2 ch, 192 Кбит/с)
Работа над релизом:
Релиз kosmoaelita.
Видеоряд найден на сименагеддоне.
Перевод на слух с англ. и озвучка по заказу kosmoaelita - Horror Maker
Спонсоры русского перевода - snorrinort, kosmoaelita, pompilius, kay1979.



Пример русского перевода

Дополнительно

слоган «Young guardians of the Universe!»

Знаете ли вы, что...

Отзывы

MediaInfo

Общее
Уникальный идентификатор : 184830402425755432665103891223117819811 (0x8B0D0A691E7EFDB5AB694CCD54FBEFA3)
Полное имя : Planet Patrol 1999.XviD.VHSRip.Rus.kosmoaelita.mkv
Формат : Matroska
Версия формата : Version 4
Размер файла : 1,10 Гбайт
Продолжительность : 1 ч. 12 м.
Общий поток : 2178 Кбит/сек
Название фильма : Планетарный патруль / Planet Patrol / 1999 / Релиз kosmoaelita.com
Дата кодирования : UTC 2020-03-21 11:54:11
Программа кодирования : mkvmerge v6.6.0 ('The Edge Of The In Between') built on Dec 1 2013 17:55:00
Библиотека кодирования : libebml v1.3.0 + libmatroska v1.4.1
Attachments : POSTER.jpg / NOTE.txt
Видео
Идентификатор : 1
Формат : MPEG-4 Visual
Профиль формата : Advanced Simple@L5
Настройки формата : BVOP1 / Custom Matrix
Параметр BVOP формата : 1
Параметр QPel формата : Нет
Параметр GMC формата : Без точки перехода
Параметр матрицы формата : Выборочная
Идентификатор кодека : V_MS/VFW/FOURCC / XVID
Идентификатор кодека/Подсказка : XviD
Продолжительность : 1 ч. 12 м.
Битрейт : 1751 Кбит/сек
Ширина : 620 пикселей
Высота : 476 пикселей
Соотношение сторон : 4:3
Режим частоты кадров : Постоянный
Частота кадров : 23,976 (23976/1000) кадра/сек
Частота кадров в оригинале : 25,000 кадров/сек
Цветовое пространство : YUV
Субдискретизация насыщенности : 4:2:0
Битовая глубина : 8 бит
Тип развёртки : Прогрессивная
Метод сжатия : С потерями
Бит/(Пиксели*Кадры) : 0.247
Размер потока : 905 Мбайт (80%)
Заголовок : http://kosmoaelita.com/viewtopic.php?t=3073
Библиотека кодирования : XviD 1.2.1 (UTC 2008-12-04)
Default : Да
Forced : Нет
Аудио #1
Идентификатор : 2
Формат : AC-3
Формат/Информация : Audio Coding 3
Коммерческое название : Dolby Digital
Идентификатор кодека : A_AC3
Продолжительность : 1 ч. 12 м.
Вид битрейта : Постоянный
Битрейт : 192 Кбит/сек
Каналы : 2 канала
ChannelLayout : L R
Частота : 48,0 КГц
Частота кадров : 31,250 кадров/сек (1536 SPF)
Метод сжатия : С потерями
Размер потока : 99,2 Мбайт (9%)
Заголовок : Русский АО (Horror Maker) - для kosmoaelita.com
Язык : Russian
ServiceKind/String : Complete Main
Default : Да
Forced : Нет
Аудио #2
Идентификатор : 3
Формат : AC-3
Формат/Информация : Audio Coding 3
Коммерческое название : Dolby Digital
Идентификатор кодека : A_AC3
Продолжительность : 1 ч. 12 м.
Вид битрейта : Постоянный
Битрейт : 192 Кбит/сек
Каналы : 2 канала
ChannelLayout : L R
Частота : 48,0 КГц
Частота кадров : 31,250 кадров/сек (1536 SPF)
Метод сжатия : С потерями
Размер потока : 99,2 Мбайт (9%)
Язык : English
ServiceKind/String : Complete Main
Default : Нет
Forced : Нет

Скриншоты

















Скринлист



Last edited by kosmoaelita on 2020-03-21 15:21; edited 3 times in total
[Profile] [PM]

kosmoaelita ®

Gender: Male

Longevity: 7 years 7 months

Posts: 1408

Post 21-Mar-2020 14:57 (after 13 minutes)

[Quote]

Видеоряд ужасного качества. Другого пока нет.
Спасибо всем участникам проекта!
[Profile] [PM]

Трамвай-фильм

Gender: Male

Longevity: 5 years 8 months

Posts: 1825

Location: Россия

Post 21-Mar-2020 15:01 (after 4 minutes)

[Quote]

Часть фильма (кое-какие сцены) скоммуниздили у сай-файчика от Фулл муна
[Profile] [PM]

snorrinort

Gender: Male

Longevity: 2 years 11 months

Posts: 191

Post 21-Mar-2020 18:44 (after 3 hours)

[Quote]

Те два человечка, с красным камушком в лапках были в "Подвидах" )) Тоже Фулл Мун
[Profile] [PM]

Трамвай-фильм

Gender: Male

Longevity: 5 years 8 months

Posts: 1825

Location: Россия

Post 21-Mar-2020 19:12 (after 28 minutes)

[Quote]

Походу фильм просто собрали из ранее снятых сцен, как Башню Смерти с Брюсом.
[Profile] [PM]

CROM@G

Gender: Male

Longevity: 4 years 6 months

Posts: 3194

Location: Прибалтика

Post 22-Mar-2020 18:58 (after 23 hours)

[Quote]

Блин так и есть Расстрелять лучше бы не переводили только деньги зря потратили
[Profile] [PM]
Display posts:    
Reply to topic

Current time is: 07-Apr 09:44

All times are UTC + 3



You cannot post new topics in this forum
You cannot reply to topics in this forum
You cannot edit your posts in this forum
You cannot delete your posts in this forum
You cannot vote in polls in this forum
You cannot attach files in this forum
You cannot download files in this forum