SCP 261: Ничего / SCP 261: Nothing (Джеймс Тройчи) [2019, США, короткометражка, научная фантастика, WEB-DL 2160p] [4K] (ЛД)

Reply to topic
DL-List and Torrent activity
Size:  88 MB   |    Registered:  18 days   |    Completed:  2 times

Seeder not seen: 21 hour

 
   
 
 
 
Author Message

Faer ®

Gender: Male

Longevity: 5 years 3 months

Posts: 417

Location: Сербия

Post 20-Mar-2020 07:07

[Quote]

SCP 261: Ничего / SCP 261: Nothing
Страна: США
Жанр: короткометражка, научная фантастика
Год выпуска: 2019
Продолжительность: 00:01:38
Перевод : Любительский (двухголосый) Kortez & Mr.Faer [ТО AFK]
Cубтитры: нет
Режиссер: Джеймс Тройчи
В ролях: Брайан Райтон, Сэм Шуртлефф
Описание: Исследование товара из SCP 261 (Межпространственный Торговый Автомат). Товар: ничто.
Качество видео: WEB-DL 2160p
Формат видео: MKV
Видео: VP9, 3840х2160, 16:9, 23.976fps, 7341 Кбит/с
Аудио 1: AC3, 192 Кбит/с, 48.0КГц, стерео

MediaInfo

Общее
Уникальный идентификатор : 169833573775950507687022714256056212653 (0x7FC4C1ABEEDC8EE984349A1E05CD5CAD)
Полное имя : C:\Users\Professional\Desktop\SCP 261 - Nothing.mkv
Формат : Matroska
Версия формата : Version 4
Размер файла : 88,0 Мбайт
Продолжительность : 1 м. 38 с.
Общий поток : 7533 Кбит/сек
Дата кодирования : UTC 2020-03-20 03:29:51
Программа кодирования : mkvmerge v25.0.0 ('Prog Noir') 64-bit
Библиотека кодирования : libebml v1.3.6 + libmatroska v1.4.9
Видео
Идентификатор : 1
Формат : VP9
Идентификатор кодека : V_VP9
Продолжительность : 1 м. 38 с.
Битрейт : 7341 Кбит/сек
Ширина : 3840 пикселей
Высота : 2160 пикселей
Соотношение сторон : 16:9
Режим частоты кадров : Постоянный
Частота кадров : 23,976 кадра/сек
Цветовое пространство : YUV
Бит/(Пиксели*Кадры) : 0.037
Размер потока : 85,8 Мбайт (97%)
Язык : English
Default : Да
Forced : Нет
Цветовой диапазон : Limited
Основные цвета : BT.709
Характеристики трансфера : BT.709
Коэффициенты матрицы : BT.709
Аудио
Идентификатор : 2
Формат : AC-3
Формат/Информация : Audio Coding 3
Коммерческое название : Dolby Digital
Идентификатор кодека : A_AC3
Продолжительность : 1 м. 38 с.
Вид битрейта : Постоянный
Битрейт : 192 Кбит/сек
Каналы : 2 канала
ChannelLayout : L R
Частота : 48,0 КГц
Частота кадров : 31,250 кадров/сек (1536 SPF)
Метод сжатия : С потерями
Размер потока : 2,24 Мбайт (3%)
Язык : Russian
ServiceKind/String : Complete Main
Default : Да
Forced : Нет

Скриншоты




Файл дополнительно залит на ОБЛАКО
SCP 261 - Nothing.torrent
Torrent: Registered [ 2020-03-20 07:07 ]

Download .torrent

Download

15 KB

Status: * not checked
Completed: 2 times
Size: 88 MB
 
[Profile] [PM]
Display posts:    
Reply to topic

Current time is: 07-Apr 10:20

All times are UTC + 3



You can post new topics in this forum
You cannot reply to topics in this forum
You cannot edit your posts in this forum
You cannot delete your posts in this forum
You cannot vote in polls in this forum
You cannot attach files in this forum
You can download files in this forum