Путешественники во времени / The Time Travelers (Айб Мельхиор) [1964, США, фантастика, WEBRip] (АО : Трамвай-фильм)

Reply to topic
DL-List and Torrent activity
Size:  759 MB   |    Registered:  20 days   |    Completed:  5 times

Seeders:

Username ULR UL DL UL speed DL speed
Holmes 0 0- 0- 0- 0-
pompilius 0.5 402321947384 MB 795676124759 MB 0- 0-
shows data only for the current session
 
   
 
 
 
Author Message

Трамвай-фильм ®

Gender: Male

Longevity: 5 years 8 months

Posts: 1825

Location: Россия

Post 17-Mar-2020 19:08

[Quote]

Путешественники во времени / The Time Travelers
Страна: США
Жанр: фантастика
Год выпуска: 1964
Продолжительность: 01:23:54
Перевод : Авторский (одноголосый) Трамвай-фильм
Режиссер: Айб Мельхиор
В ролях: Престон Фостер, Филип Кэри, Мерри Андерс, Джон Хойт, Деннис Патрик, Джоан Вудбери, Делорес Уэллс
Описание: Группа ученых из 20 века проводит эксперимент по наблюдению иного времени, внезапная авария открывает временной портал, который ведет на 100 лет в будущее. И пока незадачливый техник сбегает посмотреть на "ту сторону", а его коллеги пытаются найти горе-путешественника, портал закрывается...
Доп. информация: Римейк моей же работы 2014 года, обновленный перевод и вместо TVRip'а взят WEBDL
Качество видео: WEBRip
Видео: H.264, 776x480, 25fps, 1 000 kb/s
Аудио 1: AAC, 44100Hz, stereo, 128 kb/s (русский)
Аудио 2: AAC, 44100Hz, stereo, 128 kb/s (английский)

MediaInfo

General
Complete name : The Time Travelers (1964) (WebDL).mkv
Format : Matroska
Format version : Version 4 / Version 2
File size : 759 MiB
Duration : 1 h 23 min
Overall bit rate : 1 265 kb/s
Encoded date : UTC 2020-03-17 13:43:10
Writing application : mkvmerge v7.1.0 ('Good Love') 32bit built on Jul 27 2014 12:59:18
Writing library : libebml v1.3.0 + libmatroska v1.4.1
Video
ID : 1
Format : AVC
Format/Info : Advanced Video Codec
Format profile : High@L3
Format settings : CABAC / 4 Ref Frames
Format settings, CABAC : Yes
Format settings, ReFrames : 4 frames
Codec ID : V_MPEG4/ISO/AVC
Duration : 1 h 23 min
Bit rate : 1 000 kb/s
Width : 776 pixels
Height : 480 pixels
Display aspect ratio : 16:10
Frame rate mode : Constant
Frame rate : 25.000 FPS
Color space : YUV
Chroma subsampling : 4:2:0
Bit depth : 8 bits
Scan type : Progressive
Bits/(Pixel*Frame) : 0.107
Stream size : 604 MiB (80%)
Writing library : x264 core 152 r2851 ba24899
Encoding settings : cabac=1 / ref=4 / deblock=1:2:2 / analyse=0x3:0x113 / me=hex / subme=2 / psy=1 / psy_rd=1.00:0.00 / mixed_ref=1 / me_range=16 / chroma_me=1 / trellis=0 / 8x8dct=1 / cqm=0 / deadzone=21,11 / fast_pskip=1 / chroma_qp_offset=0 / threads=15 / lookahead_threads=3 / sliced_threads=0 / nr=0 / decimate=1 / interlaced=0 / bluray_compat=0 / constrained_intra=0 / bframes=0 / weightp=2 / keyint=75 / keyint_min=7 / scenecut=0 / intra_refresh=0 / rc_lookahead=40 / rc=abr / mbtree=1 / bitrate=1000 / ratetol=1.0 / qcomp=0.60 / qpmin=10 / qpmax=51 / qpstep=4 / ip_ratio=0.91 / aq=1:1.00
Default : Yes
Forced : No
Audio #1
ID : 2
Format : AAC
Format/Info : Advanced Audio Codec
Format profile : LC
Codec ID : A_AAC-2
Duration : 1 h 23 min
Bit rate : 128 kb/s
Channel(s) : 2 channels
Channel positions : Front: L R
Sampling rate : 44.1 kHz
Frame rate : 43.066 FPS (1024 SPF)
Compression mode : Lossy
Stream size : 76.7 MiB (10%)
Title : Tramvai.Film.2020
Language : Russian
Default : Yes
Forced : No
Audio #2
ID : 3
Format : AAC
Format/Info : Advanced Audio Codec
Format profile : LC
Codec ID : A_AAC-2
Duration : 1 h 23 min
Bit rate : 128 kb/s
Channel(s) : 2 channels
Channel positions : Front: L R
Sampling rate : 44.1 kHz
Frame rate : 43.066 FPS (1024 SPF)
Compression mode : Lossy
Stream size : 76.8 MiB (10%)
Title : ENG.original
Language : English
Default : No
Forced : No

Скриншоты





The Time Travelers (1964) (WebDL).torrent
Torrent: Registered [ 2020-03-17 19:08 ]

Download .torrent

Download

15 KB

Status: checked
Completed: 5 times
Size: 759 MB
 


Last edited by Трамвай-фильм on 2020-03-17 23:13; edited 3 times in total
[Profile] [PM]

Darth_47

Gender: Male

Longevity: 11 months

Posts: 592

Post 17-Mar-2020 19:25 (after 17 minutes)

[Quote]

26865Качество видео: WEBRip-1080p
26865Видео: H.264, 776x480, 25fps, 1 000 kb/s
Как-то не вяжется)
[Profile] [PM]

Трамвай-фильм ®

Gender: Male

Longevity: 5 years 8 months

Posts: 1825

Location: Россия

Post 17-Mar-2020 20:03 (after 37 minutes)

[Quote]

выбирал из предложенного в шаблоне и забыл убрать цифры.
[Profile] [PM]

CROM@G

Gender: Male

Longevity: 4 years 6 months

Posts: 3195

Location: Прибалтика

Post 17-Mar-2020 21:24 (after 1 hour 21 minute)

[Quote]

На удивление хороший фильмец
[Profile] [PM]

Трамвай-фильм ®

Gender: Male

Longevity: 5 years 8 months

Posts: 1825

Location: Россия

Post 17-Mar-2020 21:33 (after 8 minutes)

[Quote]

26868На удивление хороший фильмец
Согласен, сильно недооцененный.
[Profile] [PM]

Susanin

Gender: Male

Longevity: 5 years 11 months

Posts: 842

Post 18-Mar-2020 07:23 (after 9 hours)

[Quote]

А Дэновскую озвучку, что я заказывал, можно прикрутить?
[Profile] [PM]

kosmoaelita

Gender: Male

Longevity: 7 years 7 months

Posts: 1408

Post 18-Mar-2020 11:02 (after 3 hours)

[Quote]

26878А Дэновскую озвучку, что я заказывал, можно прикрутить?
Зачем? Кривой мутный рип с дичайшим стробом, от которого вылезают глаза (оригинальные 23,976 кому то понадобилось перевести криво в 25)
И очень низкими настройками кодирования subme=2
Трамвай умудрился найти самый гавняный рип и что-то с ним делать.
Есть же на трекере прекрасный двдрип, прикрутил бы к нему новый перевод
http://kosmoaelita.com/viewtopic.php?t=277
WEBRip vs. DVDRip

[Profile] [PM]
Display posts:    
Reply to topic

Current time is: 07-Apr 10:42

All times are UTC + 3



You cannot post new topics in this forum
You cannot reply to topics in this forum
You cannot edit your posts in this forum
You cannot delete your posts in this forum
You cannot vote in polls in this forum
You cannot attach files in this forum
You can download files in this forum