Никола Тесла и конец света / Nikola Tesla and the End of the World [Additional materials] [Short] (Ян Странг) [2015-2019, США, научная фантастика, документальный фильм WEB-DL-1080p] СТ (Mr.Faer)

Reply to topic
DL-List and Torrent activity
Size:  115 MB   |    Registered:  22 days   |    Completed:  1 time

Seeder not seen: 22 hours

 
   
 
 
 
Author Message

Faer ®

Gender: Male

Longevity: 5 years 3 months

Posts: 417

Location: Сербия

Post 15-Mar-2020 17:12

[Quote]

Никола Тесла и конец света / Nikola Tesla and the End of the World [Дополнительные материалы]
Страна: США
Жанр: короткометражка, документальный фильм
Год выпуска: 2015-2019
Продолжительность: 00:01:41 + 00:02:52 + 00:02:30
Перевод: Субтитры Mr.Faer
Cубтитры: русские, английские
Режиссер: Ян Странг
В ролях: Gillian MacGregor, Paul O'Neill, Adam Hurtig
Описание:
Дополнительные материалы к сериалу "Никола Тесла и конец света".
1. Анонс нового сезона и рекап
2. Никола Тесла: за кулисами
3. Никола Тесла: трейлер для GeekFest


4. Никола Тесла: вырезанные сцены (в процессе перевода)
...

Качество видео: WEB-DL-1080p
Формат: MKV
Видео: AVC, 1920х1080, 16:9, 23.976fps, 1956 Кбит/с
Аудио: Английский (AC3, 2 ch, 256 Кбит/с)
Субтитры : Русские (Mr.Faer), английские
Работа над релизом:
Перевод: Mr.Faer
Редактор: LaMan

[kp][/kp]

MediaInfo

Общее
Уникальный идентификатор : 4091310662552658130191642779443963357 (0x313F530865B0A8FD5BDB843808EA5DD)
Полное имя : C:\Users\Professional\Desktop\Nikola Tesla and the End of the World Behind the scenes.mkv
Формат : Matroska
Версия формата : Version 4
Размер файла : 42,7 Мбайт
Продолжительность : 2 м. 52 с.
Общий поток : 2084 Кбит/сек
Дата кодирования : UTC 2020-03-15 14:02:14
Программа кодирования : mkvmerge v25.0.0 ('Prog Noir') 64-bit
Библиотека кодирования : libebml v1.3.6 + libmatroska v1.4.9
Видео
Идентификатор : 2
Формат : AVC
Формат/Информация : Advanced Video Codec
Профиль формата : High@L4
Настройки формата : CABAC / 3 Ref Frames
Параметр CABAC формата : Да
Параметр RefFrames формата : 3 кадра
Идентификатор кодека : V_MPEG4/ISO/AVC
Продолжительность : 2 м. 52 с.
Битрейт : 1956 Кбит/сек
Ширина : 1920 пикселей
Высота : 1080 пикселей
Соотношение сторон : 16:9
Режим частоты кадров : Постоянный
Частота кадров : 23,976 (24000/1001) кадра/сек
Цветовое пространство : YUV
Субдискретизация насыщенности : 4:2:0
Битовая глубина : 8 бит
Тип развёртки : Прогрессивная
Бит/(Пиксели*Кадры) : 0.039
Размер потока : 40,1 Мбайт (94%)
Default : Да
Forced : Нет
Цветовой диапазон : Limited
Основные цвета : BT.709
Характеристики трансфера : BT.709
Коэффициенты матрицы : BT.709
Аудио
Идентификатор : 3
Формат : AAC LC
Формат/Информация : Advanced Audio Codec Low Complexity
Идентификатор кодека : A_AAC-2
Продолжительность : 2 м. 52 с.
Битрейт : 126 Кбит/сек
Каналы : 2 канала
ChannelLayout : L R
Частота : 44,1 КГц
Частота кадров : 43,066 кадра/сек (1024 SPF)
Метод сжатия : С потерями
Размер потока : 2,58 Мбайт (6%)
Язык : English
Default : Да
Forced : Нет
Текст #1
Идентификатор : 1
Формат : UTF-8
Идентификатор кодека : S_TEXT/UTF8
Идентификатор кодека/Информация : UTF-8 Plain Text
Продолжительность : 2 м. 38 с.
Битрейт : 177 бит/сек
ElementCount : 36
Размер потока : 3,43 Кбайт (0%)
Язык : Russian
Default : Да
Forced : Нет
Текст #2
Идентификатор : 4
Формат : UTF-8
Идентификатор кодека : S_TEXT/UTF8
Идентификатор кодека/Информация : UTF-8 Plain Text
Продолжительность : 2 м. 36 с.
Битрейт : 99 бит/сек
ElementCount : 35
Размер потока : 1,90 Кбайт (0%)
Язык : English
Default : Нет
Forced : Нет

Скриншоты




Скринлист

Tesla add.torrent
Torrent: Registered [ 2020-03-15 20:29 ]

Download .torrent

Download

18 KB

Status: * not checked
Completed: 1 times
Size: 115 MB
 


Last edited by Faer on 2020-03-15 20:29; edited 2 times in total
[Profile] [PM]

Faer ®

Gender: Male

Longevity: 5 years 3 months

Posts: 417

Location: Сербия

Post 15-Mar-2020 17:13 (after 1 minute)

[Quote]

Так как спешлы вряд ли будут озвучены, закинул их отдельно от основной раздачи. Коллекция будет пополняться.
[Profile] [PM]

Faer ®

Gender: Male

Longevity: 5 years 3 months

Posts: 417

Location: Сербия

Post 15-Mar-2020 20:30 (after 3 hours)

[Quote]

Добавлен трейлер для GeekFest.
[Profile] [PM]
Display posts:    
Reply to topic

Current time is: 07-Apr 10:59

All times are UTC + 3



You can post new topics in this forum
You cannot reply to topics in this forum
You cannot edit your posts in this forum
You cannot delete your posts in this forum
You cannot vote in polls in this forum
You cannot attach files in this forum
You can download files in this forum