Психозахватчики / Psychon Invaders / Alien Holocaust (Джефф Лерой / Jeff Leroy) [2006, Канада, США, Фантастика, DVDRip] ЛО (den904), СТ (chup)

Reply to topic
 
Author Message

kosmoaelita ®

Gender: Male

Longevity: 7 years 7 months

Posts: 1408

Post 12-Mar-2020 21:51

[Quote]

Психозахватчики / Psychon Invaders / Alien Holocaust
Страна: Канада, США
Жанр: Фантастика, ужасы
Год выпуска: 2006
Продолжительность: 01:22:26
Перевод: Любительский (одноголосый) den904 по субтитрам от chup
Режиссер: Джефф Лерой / Jeff Leroy
В ролях:
Ford Austin ... Sac Command
Philo Barnhart ... Wino
Vinnie Bilancio ... Ed Devon
Sean Cain ... Man in ship / Alien commander
Danielle De Luca ... Frisky Foxx
Victoria De Mare ... Sarah McKinnis
Phoebe Dollar ... Phoebes
Aly Hartman ... Becky
Janet Tracy Keijser ... Jan
Michelle Kova ... Veronica Grove (as Michelle Liberman)
Eric D. Madden ... Eric
Elina Madison ... Jenny Mc Kinnis
Randal Malone ... Major Bart Wells
Jed Rowen ... Wang Hung Lo
Michael Schwibs ... Gov. Jeb Burke
Описание: Сара МакКиннис, инженер-программист на оружейном заводе, случайно ранена выстрелом в голову из пистолета для борьбы с беспорядками (riot control pistol). С этого момента ее жизнь превращается в кошмар. Многие люди предстают ей в образе уродливых инопланетян. Она единственная, кто их видит таковыми. Она пытается предупредить своего "нормального" начальника, Эда Девона, но злые космические существа устраивают резню в ее лаборатории. Сара сбегает с пистолетом для борьбы с беспорядками. Инопланетяне убивают ее сестру в отместку. Она начинает вести одиночную войну против внеземной угрозы, стреляя и убивая армию отвратительных, зеленокожих монстров из космоса.
Релиз

Качество видео: DVDRip
Формат: MKV
Видео: XviD, 1350 кбит/с, 640x368, 23.976 к/с
Аудио 1: Русский ЛО (den904) (AC3, 2 ch, 192 Кбит/с)
Аудио 2: Английский (AC3, 2 ch, 192 Кбит/с)
Субтитры : Русские ()
Работа над релизом:
Релиз kosmoaelita.
Видеоряд найден на синемагеддоне.
Перевод на слух с англ. по заказу kosmoaelita - chup
Русская озвучка по заказу kosmoaelita - den904
Спонсоры русского перевода - CROM@G, PonchoUsatiy, Susanin, snorrinort, 4st, kosmoaelita, Joker777, pakin666, zenya_1985.



Пример русского перевода

Дополнительно

Also Known As (AKA)
(original title) Psychon Invaders
USA (working title) Alien Holocaust

Знаете ли вы, что...

Отзывы

MediaInfo

Общее
Уникальный идентификатор : 177761344117591415954689950484608917723 (0x85BB96ED57AECF6B8AD2C18DD2C120DB)
Полное имя : N:\Psychon Invaders 2006.XviD.DVDRip.Rus.kosmoaelita.mkv
Формат : Matroska
Версия формата : Version 4
Размер файла : 1006 Мбайт
Продолжительность : 1 ч. 22 м.
Общий поток : 1706 Кбит/сек
Название фильма : Психозахватчики / Psychon Invaders / 2006 / Релиз kosmoaelita.com
Дата кодирования : UTC 2020-03-17 19:33:56
Программа кодирования : mkvmerge v6.6.0 ('The Edge Of The In Between') built on Dec 1 2013 17:55:00
Библиотека кодирования : libebml v1.3.0 + libmatroska v1.4.1
Attachments : NOTE.txt / poster.jpg
Видео
Идентификатор : 1
Формат : MPEG-4 Visual
Профиль формата : Advanced Simple@L5
Настройки формата : BVOP1
Параметр BVOP формата : 1
Параметр QPel формата : Нет
Параметр GMC формата : Без точки перехода
Параметр матрицы формата : Default (MPEG)
Идентификатор кодека : V_MS/VFW/FOURCC / XVID
Идентификатор кодека/Подсказка : XviD
Продолжительность : 1 ч. 22 м.
Битрейт : 1320 Кбит/сек
Ширина : 640 пикселей
Высота : 368 пикселей
Соотношение сторон : 1,739
Режим частоты кадров : Постоянный
Частота кадров : 23,976 (23976/1000) кадра/сек
Цветовое пространство : YUV
Субдискретизация насыщенности : 4:2:0
Битовая глубина : 8 бит
Тип развёртки : Прогрессивная
Метод сжатия : С потерями
Бит/(Пиксели*Кадры) : 0.234
Размер потока : 778 Мбайт (77%)
Заголовок : http://kosmoaelita.com/viewtopic.php?t=3065
Библиотека кодирования : XviD 1.1.2 (UTC 2006-11-01)
Default : Да
Forced : Нет
Аудио #1
Идентификатор : 2
Формат : AC-3
Формат/Информация : Audio Coding 3
Коммерческое название : Dolby Digital
Идентификатор кодека : A_AC3
Продолжительность : 1 ч. 22 м.
Вид битрейта : Постоянный
Битрейт : 192 Кбит/сек
Каналы : 2 канала
ChannelLayout : L R
Частота : 48,0 КГц
Частота кадров : 31,250 кадров/сек (1536 SPF)
Метод сжатия : С потерями
Размер потока : 113 Мбайт (11%)
Заголовок : Русский ЛО (den904) - для kosmoaelita.com
Язык : Russian
ServiceKind/String : Complete Main
Default : Да
Forced : Нет
Аудио #2
Идентификатор : 3
Формат : MPEG Audio
Версия формата : Version 1
Профиль формата : Layer 3
Настройки формата : Joint stereo / MS Stereo
Идентификатор кодека : A_MPEG/L3
Идентификатор кодека/Подсказка : MP3
Продолжительность : 1 ч. 22 м.
Вид битрейта : Постоянный
Битрейт : 160 Кбит/сек
Каналы : 2 канала
Частота : 48,0 КГц
Метод сжатия : С потерями
Размер потока : 94,3 Мбайт (9%)
Язык : English
Default : Нет
Forced : Нет
Текст #1
Идентификатор : 4
Формат : UTF-8
Идентификатор кодека : S_TEXT/UTF8
Идентификатор кодека/Информация : UTF-8 Plain Text
Заголовок : Русский (chup) .srt - на слух с англ.
Язык : Russian
Default : Да
Forced : Нет
Текст #2
Идентификатор : 5
Формат : VobSub
Режим смешивания : zlib
Идентификатор кодека : S_VOBSUB
Идентификатор кодека/Информация : Picture based subtitle format used on DVDs
Заголовок : Русский (chup) .VobSub - на слух с англ.
Язык : Russian
Default : Нет
Forced : Нет

Пример субтитров

1
00:00:34,090 --> 00:00:38,220
Центр управления на связи.
У меня тут два неопознанных объекта.
2
00:00:38,330 --> 00:00:40,320
Координаты на вашем трекере.
3
00:00:40,330 --> 00:00:43,330
У нас есть поблизости
экипажи?
4
00:00:44,260 --> 00:00:49,110
Вас понял. Это Фокстрот 4.
Я в 50-ти милях от указанных координат.
-----------------
771
01:18:11,100 --> 01:18:13,790
Берегитесь продажных политиков.
772
01:18:13,930 --> 01:18:15,710
Но главное, глядите в оба.
773
01:18:15,870 --> 01:18:19,450
Смотрите в небеса.
774
01:18:23,980 --> 01:18:27,860
Перевод на слух с английского: chup
март, 2020г.

Скриншоты




















Скринлист



Last edited by kosmoaelita on 2020-03-17 22:36; edited 2 times in total
[Profile] [PM]

CROM@G

Gender: Male

Longevity: 4 years 6 months

Posts: 3194

Location: Прибалтика

Post 21-Mar-2020 18:11 (after 8 days)

[Quote]

Скучноватый трэшак
[Profile] [PM]
Display posts:    
Reply to topic

Current time is: 07-Apr 09:13

All times are UTC + 3



You cannot post new topics in this forum
You cannot reply to topics in this forum
You cannot edit your posts in this forum
You cannot delete your posts in this forum
You cannot vote in polls in this forum
You cannot attach files in this forum
You cannot download files in this forum