Побег с Земли / The Survivor (Ник Дэвис / Nick Davis) [1998, США, Пуэрто Рико, Фантастика, боевик, постапокалипсис, WEB-DL-1080p] (АО : Юрий Сербин) (Sub Eng)

Reply to topic
 
Author Message

AlexNT60 ®

Gender: Male

Longevity: 7 years 8 months

Posts: 137

Location: СПб

Post 11-Mar-2020 14:24

[Quote]

Побег с Земли / The Survivor
Страна: США, Пуэрто Рико
Жанр: Фантастика, боевик, постапокалипсис
Год выпуска: 1998
Продолжительность: 01:28:28
Перевод 1: Авторский (одноголосый) Юрий Сербин
Cубтитры: английские
Режиссер: Ник Дэвис / Nick Davis
В ролях: Ксавье Де Клие, Ричард Молл, Лиза Робин Келли, Стюарт Финлэй-Макленнан, Пэт Асанти, Ричард Херд, Карлос Цестеро, Эрнесто Консепсьон мл., Дэмиен Дональсон, Лоуренс Даффи
Описание: Действие происходит в далеком будущем, когда планета Земля превратится в исправительную колонию для преступников. Жизнь на ней после ядерной катастрофы была вопросом выживания. Именно сюда попадает миссия во главе с президентом Космической Федерации в результате аварии корабля. Удастся ли им спастись в этом мире отпетых бандитов и убийц, главарь которых и подстроил эту аварию? Фантастический боевичок с хорошими спецэффектами. (Иванов М.)
Качество видео: WEB-DL-1080p
Формат видео: MKV
Видео: x264, 14000 кбит/с, 1920x1080, 24.000 к/с
Аудио 1: Русский АО (Ю.Сербин) (AC3, 2 ch, 192 Кбит/с)
Аудио 2: Английский (AC3, 5.1 ch, 384 Кбит/с)
Формат субтитров: softsub (SRT)
Доп. информация о субтитрах: английский SDH

MediaInfo

General
Unique ID : 97326651844588280846294957122278488435 (0x49386E6AD1EDCB85D8E96D26B8D97973)
Complete name : F:\Torrent\The.Survivor.1998.1080p.AMZN.WEB-DL.x264.mkv
Format : Matroska
Format version : Version 4
File size : 8.99 GiB
Duration : 1 h 28 min
Overall bit rate : 14.5 Mb/s
Movie name : The Survivor (1998)
Encoded date : UTC 2020-03-11 11:08:03
Writing application : mkvmerge v41.0.0 ('Smarra') 64-bit
Writing library : libebml v1.3.9 + libmatroska v1.5.2
Cover : Yes
Attachments : Cover.png
Video
ID : 1
Format : AVC
Format/Info : Advanced Video Codec
Format profile : High@L4
Format settings : CABAC / 4 Ref Frames
Format settings, CABAC : Yes
Format settings, Reference fra : 4 frames
Codec ID : V_MPEG4/ISO/AVC
Duration : 1 h 28 min
Bit rate : 14.0 Mb/s
Width : 1 920 pixels
Height : 1 080 pixels
Display aspect ratio : 16:9
Frame rate mode : Constant
Frame rate : 24.000 FPS
Color space : YUV
Chroma subsampling : 4:2:0
Bit depth : 8 bits
Scan type : Progressive
Bits/(Pixel*Frame) : 0.281
Stream size : 8.63 GiB (96%)
Default : Yes
Forced : No
Color range : Limited
Color primaries : BT.709
Transfer characteristics : BT.709
Matrix coefficients : BT.709
Audio #1
ID : 2
Format : AC-3
Format/Info : Audio Coding 3
Commercial name : Dolby Digital
Codec ID : A_AC3
Duration : 1 h 28 min
Bit rate mode : Constant
Bit rate : 192 kb/s
Channel(s) : 2 channels
Channel layout : L R
Sampling rate : 48.0 kHz
Frame rate : 31.250 FPS (1536 SPF)
Compression mode : Lossy
Stream size : 121 MiB (1%)
Title : AVO (Ю.Сербин)
Language : Russian
Service kind : Complete Main
Default : Yes
Forced : No
Audio #2
ID : 3
Format : AC-3
Format/Info : Audio Coding 3
Commercial name : Dolby Digital
Codec ID : A_AC3
Duration : 1 h 28 min
Bit rate mode : Constant
Bit rate : 384 kb/s
Channel(s) : 6 channels
Channel layout : L R C LFE Ls Rs
Sampling rate : 48.0 kHz
Frame rate : 31.250 FPS (1536 SPF)
Compression mode : Lossy
Stream size : 243 MiB (3%)
Language : English
Service kind : Complete Main
Default : No
Forced : No
Text
ID : 4
Format : UTF-8
Codec ID : S_TEXT/UTF8
Codec ID/Info : UTF-8 Plain Text
Duration : 1 h 25 min
Bit rate : 40 b/s
Count of elements : 1026
Stream size : 25.4 KiB (0%)
Language : English
Default : No
Forced : No
[Profile] [PM]
Display posts:    
Reply to topic

Current time is: 22-Oct 20:51

All times are UTC + 3



You cannot post new topics in this forum
You cannot reply to topics in this forum
You cannot edit your posts in this forum
You cannot delete your posts in this forum
You cannot vote in polls in this forum
You cannot attach files in this forum
You cannot download files in this forum