Проект Генезис / Странные Горизонты / Strange Horizons / Project: Genesis (Филип Джексон / Philip Jackson) [1992 г., фантастика, WEBDL-1080p] ПД (), ЛО (den904), СТ (kosmoaelita,Severnyj)

Reply to topic
 
Author Message

kosmoaelita ®

Gender: Male

Longevity: 8 years 2 months

Posts: 1705

Post 11-Mar-2020 01:07

[Quote]

Проект Генезис / Странные Горизонты / Strange Horizons / Project: Genesis
Релиз - kosmoaelita. com
Год выпуска: 1992
Страна: Великобритания, Канада
Жанр: фантастика
Продолжительность: 01:21:13
Перевод 1: ПД (запись с ТВ)
Перевод 2: ЛО (den904) по субтитрам от (kosmoaelita,Severnyj)
Режиссер: Филип Джексон / Philip Jackson
В ролях: Дэвид Ферри, Ольга Прохорова, Кен Лемар, Роберт Рассел, Денис МакЛеод, Анджела Терри, Mark Ciale, Марк Терри, Mary Anne Transylvania Terry, Дирк МакЛин
Описание: Шорти - бортовой компьютер космического корабля Мизантроп рассказывает историю последнего путешествия корабля и его крушения на неизвестной планете, связанную с наркотиком "Горизонт"...
Крепко пьющий космический курьер сбит неизвестным кораблем и совершает аварийную посадку на безлюдной планете. Там он продолжает пить, беседует со своим компьютером, который осознает себя личностью, вспоминает свое прошлое, некоторые эпизоды показаны в коротких реминисценциях, и пытается починить свой корабль. Тем временем, неподалеку происходит противостояние между сбившим его «чужим» кораблем, принадлежащим расе людей основавших религиозную секту, которая не верит в вербальное общение и поэтому члены секты принимают наркотик под названием «Горизонт», угнетающий речевые центры и кораблем, принадлежащим другой группировке, известной как «Материнство». Предупреждаю вас, что в фильме очень мало действия, полно монологов и диалогов, короче, это очень разговорчивая, статичная и некоммерческая фантастика.
Выдержка из рекламы: «Идет 23 столетие. Корабль Паскаля поврежден, и он оказывается на необитаемой планете в компании прекрасной «чужой». Хоть ее бьющая через край сексуальность и привлекает его, но ее же враждебность оставляет его в тупике. Когда над их планетой сталкиваются воюющие миры, они осознают, что кроме их желаний и чувств они должны сражаться за новое начало в этом углу Вселенной».

Доп. информация: В роли главной героини женского пола Alien Woman снялась наша соотечественница-эмигрантка Ольга Ефимовна Прохорова
Релиз

Качество: WEBDL-1080p
Формат: MKV
Видео: x264, 12600 кбит/с, 1920x1080, 23.976 к/с
Аудио 1: Русский ЛО (den904) ) (AC3, 2 ch, 256 Кбит/с)
Аудио 2: Русский ПД (запись с ТВ) ) (AC3, 2 ch, 224 Кбит/с)
Аудио 3: Английский (AC3, 2 ch, 256 Кбит/с)
Субтитры : Русские (Severnyj), английские
Работа над релизом:
Релиз kosmoaelita.com
Перевод на слух с англ. по заказу kosmoaelita.com - Severnyj
Русская озвучка по заказу kosmoaelita.com - Den904
запись с ТВ в дорутрекерный период) спасибо SuperDVD01
Рип найден на rarbg2018.org



Пример русских озвучки и субтитров

Дополнительно

Also Known As (AKA)
Project: Genesis (undefined)
Projecto Genesis Portugal
Strange Horizon (undefined)

MediaInfo

Общее
Уникальный идентификатор : 203417926290546548455272465124080205414 (0x9908DE178C40ED33A6080C92F9B7BE66)
Полное имя : J:\Strange Horizons Project Genesis 1993.x264.WEB-DL.1080p.2xRus.kosmoaelita.mkv
Формат : Matroska
Версия формата : Version 4
Размер файла : 7,73 Гбайт
Продолжительность : 1 ч. 21 м.
Общий поток : 13,6 Мбит/сек
Название фильма : Проект "Генезис" / Strange Horizons / Project: Genesis, 1993г / www.kosmoaelita.com
Дата кодирования : UTC 2020-03-10 21:37:38
Программа кодирования : mkvmerge v6.6.0 ('The Edge Of The In Between') built on Dec 1 2013 17:55:00
Библиотека кодирования : libebml v1.3.0 + libmatroska v1.4.1
Attachments : poster.jpg
Видео
Идентификатор : 1
Формат : AVC
Формат/Информация : Advanced Video Codec
Профиль формата : High@L4
Настройки формата : CABAC / 4 Ref Frames
Параметр CABAC формата : Да
Параметр RefFrames формата : 4 кадра
Идентификатор кодека : V_MPEG4/ISO/AVC
Продолжительность : 1 ч. 21 м.
Битрейт : 12,6 Мбит/сек
Ширина : 1920 пикселей
Высота : 1080 пикселей
Соотношение сторон : 16:9
Режим частоты кадров : Постоянный
Частота кадров : 23,976 (24000/1001) кадра/сек
Цветовое пространство : YUV
Субдискретизация насыщенности : 4:2:0
Битовая глубина : 8 бит
Тип развёртки : Прогрессивная
Бит/(Пиксели*Кадры) : 0.254
Размер потока : 7,15 Гбайт (93%)
Заголовок : http://kosmoaelita.com/viewtopic.php?t=757
Default : Да
Forced : Нет
Цветовой диапазон : Limited
Основные цвета : BT.709
Характеристики трансфера : BT.709
Коэффициенты матрицы : BT.709
Аудио #1
Идентификатор : 2
Формат : AC-3
Формат/Информация : Audio Coding 3
Коммерческое название : Dolby Digital
Идентификатор кодека : A_AC3
Продолжительность : 1 ч. 21 м.
Вид битрейта : Постоянный
Битрейт : 256 Кбит/сек
Каналы : 2 канала
ChannelLayout : L R
Частота : 48,0 КГц
Частота кадров : 31,250 кадров/сек (1536 SPF)
Метод сжатия : С потерями
Размер потока : 149 Мбайт (2%)
Заголовок : Русский ЛО (den904 для kosmoaelita.com)
Язык : Russian
ServiceKind/String : Complete Main
Default : Да
Forced : Нет
Аудио #2
Идентификатор : 3
Формат : AC-3
Формат/Информация : Audio Coding 3
Коммерческое название : Dolby Digital
Идентификатор кодека : A_AC3
Продолжительность : 1 ч. 21 м.
Вид битрейта : Постоянный
Битрейт : 224 Кбит/сек
Каналы : 2 канала
ChannelLayout : L R
Частота : 48,0 КГц
Частота кадров : 31,250 кадров/сек (1536 SPF)
Метод сжатия : С потерями
Размер потока : 130 Мбайт (2%)
Заголовок : Русский ПД (запись с ТВ)
Язык : Russian
ServiceKind/String : Complete Main
Default : Нет
Forced : Нет
Аудио #3
Идентификатор : 4
Формат : AC-3
Формат/Информация : Audio Coding 3
Коммерческое название : Dolby Digital
Идентификатор кодека : A_AC3
Продолжительность : 1 ч. 21 м.
Вид битрейта : Постоянный
Битрейт : 256 Кбит/сек
Каналы : 2 канала
ChannelLayout : L R
Частота : 48,0 КГц
Частота кадров : 31,250 кадров/сек (1536 SPF)
Метод сжатия : С потерями
Размер потока : 149 Мбайт (2%)
Язык : English
ServiceKind/String : Complete Main
Default : Нет
Forced : Нет
Текст #1
Идентификатор : 5
Формат : UTF-8
Идентификатор кодека : S_TEXT/UTF8
Идентификатор кодека/Информация : UTF-8 Plain Text
Заголовок : Русский форс. песни
Язык : Russian
Default : Да
Forced : Нет
Текст #2
Идентификатор : 6
Формат : UTF-8
Идентификатор кодека : S_TEXT/UTF8
Идентификатор кодека/Информация : UTF-8 Plain Text
Заголовок : Русский (kosmoaelita,Severnyj) srt
Язык : Russian
Default : Нет
Forced : Нет
Текст #3
Идентификатор : 7
Формат : PGS
Режим смешивания : zlib
Идентификатор кодека : S_HDMV/PGS
Идентификатор кодека/Информация : Picture based subtitle format used on BDs/HD-DVDs
Заголовок : Русский (kosmoaelita,Severnyj) .PGS
Язык : Russian
Default : Нет
Forced : Нет
Текст #4
Идентификатор : 8
Формат : UTF-8
Идентификатор кодека : S_TEXT/UTF8
Идентификатор кодека/Информация : UTF-8 Plain Text
Заголовок : English [SDH]
Язык : English
Default : Нет
Forced : Нет

Пример субтитров

1
00:00:04,225 --> 00:00:08,200
<i>Релиз:
www.kosmoaelita.com</i>
2
00:00:09,000 --> 00:00:14,990
Я - Шорти, бортовой компьютер того,
что осталось от корабля
под названием Мизантроп.
3
00:00:15,315 --> 00:00:21,500
Три года назад Мизантроп разбился
на неизвестной планете
в свободном секторе Галактики.
4
00:00:21,875 --> 00:00:26,263
Паскаль, последний капитан Мизантропа,
разделил со мной эту участь.
5
00:00:26,732 --> 00:00:29,718
Это история нашего
последнего путешествия.
6
00:00:31,069 --> 00:00:34,306
Поскольку я не могу оценить
степень повреждений...
7
00:00:34,376 --> 00:00:37,819
...банков памяти, то хочу
записать всё, пока ещё могу.
8
00:00:38,223 --> 00:00:41,058
Корабль направлялся
к планете Богад свободного сектора...
9
00:00:41,128 --> 00:00:44,900
...и Паскаль воплощал
вселенское спокойствие.
10
00:01:36,631 --> 00:01:43,546
Проект "Генезис"
(Project: Genesis, 1993г)
(Strange Horizons)
11
00:02:06,412 --> 00:02:08,361
Паскаль, у нас проблема.
12
00:02:09,819 --> 00:02:11,344
Паскаль, у нас проблема.
13
00:02:12,762 --> 00:02:14,162
Паскаль!
14
00:02:15,637 --> 00:02:19,929
Та-да-да-да! Та-да-да-да!
Та-да-да-да!
15
00:02:19,999 --> 00:02:20,979
Что?
16
00:02:21,014 --> 00:02:24,046
Сканеры показывают, что
нас настигает...
------------------------
608
01:15:26,276 --> 01:15:29,270
Периодически я напоминаю об
этом Паскалю.
609
01:15:29,763 --> 01:15:37,990
Но в любом случае, кажется,
что он здесь счастлив.
И то, как настойчиво он пытается спастись,
610
01:15:38,270 --> 01:15:43,733
...оказало эффект и на меня.
Потому что мне пришло в голову...
611
01:15:43,803 --> 01:15:49,586
...что незачем вести этот дневник,
если я не верю, что он добьётся успеха...
612
01:15:55,803 --> 01:15:59,586
Перевод на слух с англ. Severnyj
Ред. sasha20072007
май, 2013 года

Скриншоты












Скринлист

cd Рип дополнительно залит на mail.ru cd2
[Profile] [PM]
Display posts:    
Reply to topic

Current time is: 30-Nov 01:38

All times are UTC + 3



You cannot post new topics in this forum
You cannot reply to topics in this forum
You cannot edit your posts in this forum
You cannot delete your posts in this forum
You cannot vote in polls in this forum
You cannot attach files in this forum
You cannot download files in this forum