Генетическая особь / Deep Evil (Пэт Уильямс / Pat Williams) [2004, США, ужасы, фантастика, BDRip-1080p] (ПД : Lizard Cinema Trade) (АО : Сергей Визгунов) (Sub Rus)

Reply to topic
 
Author Message

AlexNT60 ®

Gender: Male

Longevity: 7 years 7 months

Posts: 137

Location: СПб

Post 08-Mar-2020 04:20

[Quote]

Генетическая особь / Deep Evil
Страна: США
Жанр: ужасы, фантастика
Год выпуска: 2004
Продолжительность: 01:33:19
Перевод 1: Профессиональный (двухголосый) Lizard Cinema Trade
Перевод 2: Авторский (одноголосый) Сергей Визгунов
Cубтитры: Русские, Английскиe
Режиссер: Пэт Уильямс / Pat Williams
В ролях: Лоренцо Ламас, Она Грауэр, Адам Харингтон, Уилл Сэндерсон, Рэйчел Хейярд, Майкл Копса, Линдсэй Максвелл, Рэйчел Гродник, Майкл П. Норти
Описание: Элитный отряд американского спецназа поднят по тревоге после загадочной аварии в сверхсекретной лаборатории на Аляске. Избранным бойцам во главе с биохимиками Лэнгдоном и Коул предстоит попасть в огромный подземный город, где лучшие умы страны работают над уникальной добычей военных: мыслящим инопланетным вирусом, извлеченным из метеорита, упавшего в Сибири. Им удалось клонировать его, создав жидкую субстанцию, способную порабощать любые живые организмы. Это непобедимое оружие Судного Дня. Никто не знает, что происходит в герметично запечатанном комплексе, но ученые не хотят верить, что случилось самое страшное — пришелец-мутант обрел свободу и теперь ищет путь во внешний мир, с каждой секундой становясь, все умнее и коварнее…
Качество видео: BDRip-1080p
Формат видео: MKV
Видео: x264, 12600 кбит/с, 1920x1080, 23.976 к/с
Аудио 1: Русский (AC3, 2 ch, 192 Кбит/с)
Аудио 2: Русский (AC3, 2 ch, 192 Кбит/с)
Аудио 3: Английский (AC3, 2 ch, 192 Кбит/с)
Формат субтитров: softsub (SRT)
Доп. информация о субтитрах: Русские, Английскиe

MediaInfo

General
Unique ID : 89056516529047307594007731475551988990 (0x42FFA943EB402F99D0752945C4C5ACFE)
Complete name : G:\SciFi\Deep.Evil.2004.1080p.AMZN.WEBRip.DDP2.0.x264-BLUTONiUM\Deep.Evil.2004.1080p.AMZN.WEB-DL.x264.mkv
Format : Matroska
Format version : Version 4
File size : 8.60 GiB
Duration : 1 h 33 min
Overall bit rate : 13.2 Mb/s
Movie name : Deep Evil (2004)
Encoded date : UTC 2020-03-08 00:47:58
Writing application : mkvmerge v41.0.0 ('Smarra') 64-bit
Writing library : libebml v1.3.9 + libmatroska v1.5.2
Cover : Yes
Attachments : Cover.jpg
Video
ID : 1
Format : AVC
Format/Info : Advanced Video Codec
Format profile : High@L4
Format settings : CABAC / 4 Ref Frames
Format settings, CABAC : Yes
Format settings, Reference fra : 4 frames
Codec ID : V_MPEG4/ISO/AVC
Duration : 1 h 33 min
Bit rate : 12.6 Mb/s
Width : 1 920 pixels
Height : 1 080 pixels
Display aspect ratio : 16:9
Frame rate mode : Constant
Frame rate : 23.976 (24000/1001) FPS
Color space : YUV
Chroma subsampling : 4:2:0
Bit depth : 8 bits
Scan type : Progressive
Bits/(Pixel*Frame) : 0.254
Stream size : 8.22 GiB (96%)
Language : English
Default : Yes
Forced : No
Color range : Limited
Color primaries : BT.709
Transfer characteristics : BT.709
Matrix coefficients : BT.709
Audio #1
ID : 2
Format : AC-3
Format/Info : Audio Coding 3
Commercial name : Dolby Digital
Codec ID : A_AC3
Duration : 1 h 33 min
Bit rate mode : Constant
Bit rate : 192 kb/s
Channel(s) : 2 channels
Channel layout : L R
Sampling rate : 48.0 kHz
Frame rate : 31.250 FPS (1536 SPF)
Compression mode : Lossy
Stream size : 128 MiB (1%)
Title : DVO (Lizard Cinema Trade)
Language : Russian
Service kind : Complete Main
Default : Yes
Forced : No
Audio #2
ID : 3
Format : AC-3
Format/Info : Audio Coding 3
Commercial name : Dolby Digital
Codec ID : A_AC3
Duration : 1 h 33 min
Bit rate mode : Constant
Bit rate : 192 kb/s
Channel(s) : 2 channels
Channel layout : L R
Sampling rate : 48.0 kHz
Frame rate : 31.250 FPS (1536 SPF)
Compression mode : Lossy
Stream size : 128 MiB (1%)
Title : AVO (С.Визгунов)
Language : Russian
Service kind : Complete Main
Default : No
Forced : No
Audio #3
ID : 4
Format : AC-3
Format/Info : Audio Coding 3
Commercial name : Dolby Digital
Codec ID : A_AC3
Duration : 1 h 33 min
Bit rate mode : Constant
Bit rate : 192 kb/s
Channel(s) : 2 channels
Channel layout : L R
Sampling rate : 48.0 kHz
Frame rate : 31.250 FPS (1536 SPF)
Compression mode : Lossy
Stream size : 128 MiB (1%)
Language : English
Service kind : Complete Main
Default : No
Forced : No
Text #1
ID : 5
Format : UTF-8
Codec ID : S_TEXT/UTF8
Codec ID/Info : UTF-8 Plain Text
Duration : 1 h 28 min
Bit rate : 89 b/s
Count of elements : 996
Stream size : 58.4 KiB (0%)
Language : Russian
Default : No
Forced : No
Text #2
ID : 6
Format : UTF-8
Codec ID : S_TEXT/UTF8
Codec ID/Info : UTF-8 Plain Text
Duration : 1 h 28 min
Bit rate : 63 b/s
Count of elements : 1118
Stream size : 41.3 KiB (0%)
Language : English
Default : No
Forced : No
Menu
00:00:00.000 : en:
00:12:12.563 : en:
00:17:48.442 : en:
00:25:39.410 : en:
00:43:04.455 : en:
00:49:16.411 : en:
01:06:46.502 : en:
01:14:53.404 : en:

Скриншоты:




[Profile] [PM]
Display posts:    
Reply to topic

Current time is: 29-Sep 07:56

All times are UTC + 3



You cannot post new topics in this forum
You cannot reply to topics in this forum
You cannot edit your posts in this forum
You cannot delete your posts in this forum
You cannot vote in polls in this forum
You cannot attach files in this forum
You cannot download files in this forum