Д-52 / D-52 [Short] (GHP Film) [2012, Хорватия, научная фантастика, боевик WEB-DL-1080p] ЛО (Kortez), СТ (Mr.Faer)

Reply to topic
DL-List and Torrent activity
Size:  132 MB   |    Registered:  6 months 12 days   |    Completed:  0 times

Seeder not seen: 6 months 9 days

 
   
 
 
 
Author Message

Faer ®

Gender: Male

Longevity: 5 years 8 months

Posts: 455

Post 02-Mar-2020 01:22

[Quote]

Д-52 / D-52
Страна: Хорватия
Жанр: короткометражка, сериал, научная фантастика, драма
Год выпуска: 2012
Продолжительность: 00:05:19
Перевод: ЛО Kortez по субтитрам от (Mr.Faer)
Cубтитры: русские, английские
Режиссер: GHP Film
В ролях: N/A
Описание:Противостояние домашнего дройда и боевых дронов заканчивается неожиданным образом...
Качество видео: WEB-DL-1080p
Формат: MKV
Видео: AVC, 1920*1080, 16:9, 25fps, 2940 Кбит/с
Аудио 1: Хорватский(AAC, 44.1КгЦ, 128 Кбит/с, стерео)
Аудио 2: Русский ЛО (Kortez) (AC3, 48КгЦ, 192 Кбит/с, стерео)
Аудио 3: Русский ЛО (без эффекта рации) (Kortez) (AC3, 48КгЦ, 192 Кбит/с, стерео)
Субтитры : Русские (Mr.Faer), английские
Работа над релизом:
Перевод: Mr.Faer
Редактор: LaMan
Озвучивание: Kortez

Пример субтитров

1
00:00:23,920 --> 00:00:26,280
-Штаб 0-3, Штаб 0-3, это Альфа 1-5.
2
00:00:26,280 --> 00:00:30,100
Мы вошли в зону 4. Дайте отчёт о ситуации на земле.
-----------------------------------------
35
00:04:48,600 --> 00:04:51,500
- Цель очень опасна. Рекомендуется стрельба на поражение.
36
00:04:51,660 --> 00:04:55,000
Я повторяю, стреляйте на поражение.
37
00:05:00,000 --> 00:05:02,000
Д-52

MediaInfo

Общее
Уникальный идентификатор : 242313097670715671206907460008255569619 (0xB64BCE1934F4365EB5823D7922CA3ED3)
Полное имя : C:\Users\Win10Pro\Desktop\D-52.mkv
Формат : Matroska
Версия формата : Version 4
Размер файла : 132 Мбайт
Продолжительность : 5 м. 19 с.
Общий поток : 3455 Кбит/сек
Дата кодирования : UTC 2020-03-01 21:44:33
Программа кодирования : mkvmerge v25.0.0 ('Prog Noir') 64-bit
Библиотека кодирования : libebml v1.3.6 + libmatroska v1.4.9
Видео
Идентификатор : 1
Формат : AVC
Формат/Информация : Advanced Video Codec
Профиль формата : High@L4
Настройки формата : CABAC / 3 Ref Frames
Параметр CABAC формата : Да
Параметр RefFrames формата : 3 кадра
Идентификатор кодека : V_MPEG4/ISO/AVC
Продолжительность : 5 м. 19 с.
Битрейт : 2940 Кбит/сек
Ширина : 1920 пикселей
Высота : 1080 пикселей
Соотношение сторон : 16:9
Режим частоты кадров : Постоянный
Частота кадров : 25,000 кадров/сек
Цветовое пространство : YUV
Субдискретизация насыщенности : 4:2:0
Битовая глубина : 8 бит
Тип развёртки : Прогрессивная
Бит/(Пиксели*Кадры) : 0.057
Размер потока : 112 Мбайт (85%)
Default : Да
Forced : Нет
Цветовой диапазон : Limited
Основные цвета : BT.709
Характеристики трансфера : BT.709
Коэффициенты матрицы : BT.709
Аудио #1
Идентификатор : 2
Формат : AAC LC
Формат/Информация : Advanced Audio Codec Low Complexity
Идентификатор кодека : A_AAC-2
Продолжительность : 5 м. 19 с.
Битрейт : 128 Кбит/сек
Каналы : 2 канала
ChannelLayout : L R
Частота : 44,1 КГц
Частота кадров : 43,066 кадра/сек (1024 SPF)
Метод сжатия : С потерями
Размер потока : 4,88 Мбайт (4%)
Язык : English
Default : Нет
Forced : Нет
Аудио #2
Идентификатор : 3
Формат : AC-3
Формат/Информация : Audio Coding 3
Коммерческое название : Dolby Digital
Идентификатор кодека : A_AC3
Продолжительность : 5 м. 19 с.
Вид битрейта : Постоянный
Битрейт : 192 Кбит/сек
Каналы : 2 канала
ChannelLayout : L R
Частота : 48,0 КГц
Частота кадров : 31,250 кадров/сек (1536 SPF)
Метод сжатия : С потерями
Размер потока : 7,32 Мбайт (6%)
Язык : Russian
ServiceKind/String : Complete Main
Default : Да
Forced : Нет
Аудио #3
Идентификатор : 5
Формат : AC-3
Формат/Информация : Audio Coding 3
Коммерческое название : Dolby Digital
Идентификатор кодека : A_AC3
Продолжительность : 5 м. 19 с.
Вид битрейта : Постоянный
Битрейт : 192 Кбит/сек
Каналы : 2 канала
ChannelLayout : L R
Частота : 48,0 КГц
Частота кадров : 31,250 кадров/сек (1536 SPF)
Метод сжатия : С потерями
Размер потока : 7,32 Мбайт (6%)
Заголовок : с эффектом рации
Язык : Russian
ServiceKind/String : Complete Main
Default : Нет
Forced : Нет
Текст #1
Идентификатор : 4
Формат : UTF-8
Идентификатор кодека : S_TEXT/UTF8
Идентификатор кодека/Информация : UTF-8 Plain Text
Продолжительность : 4 м. 45 с.
Битрейт : 66 бит/сек
ElementCount : 38
Размер потока : 2,32 Кбайт (0%)
Язык : Russian
Default : Да
Forced : Нет
Текст #2
Идентификатор : 6
Формат : UTF-8
Идентификатор кодека : S_TEXT/UTF8
Идентификатор кодека/Информация : UTF-8 Plain Text
Продолжительность : 4 м. 27 с.
Битрейт : 44 бит/сек
ElementCount : 35
Размер потока : 1,45 Кбайт (0%)
Язык : English
Default : Нет
Forced : Нет

Скриншоты

Скринлист

Файл дополнительно залит на ОБЛАКО
D-52 [Short] 2012.x264.WEBDL.1080p.kosmoaelita.mkv.torrent
Torrent: Registered [ 2020-03-15 14:32 ]

Download .torrent

Download

3 KB

Status: checked
Completed: 0 times
Size: 132 MB
 
[Profile] [PM]
Display posts:    
Reply to topic

Current time is: 28-Sep 06:16

All times are UTC + 3



You can post new topics in this forum
You cannot reply to topics in this forum
You cannot edit your posts in this forum
You cannot delete your posts in this forum
You cannot vote in polls in this forum
You cannot attach files in this forum
You can download files in this forum