Путешествие на дно моря (Сезон 2) / Voyage to the Bottom of the Sea / season 2 (26) (e01-26x26) (Irwin Allen / Ирвин Аллен) [1965-68, фантастика, приключения, DVDRip] АО (Ghostface, Horror Maker)

Reply to topic
 
Author Message

kosmoaelita ®

Gender: Male

Longevity: 8 years 5 months

Posts: 1729

Post 01-Mar-2020 03:36

[Quote]

Путешествие на дно моря (Сериал, Сезон 2) / Voyage to the Bottom of the Sea
Год выпуска: 1965-68
Страна: США, 20th Century Fox Television,
Irwin Allen Productions
Жанр: фантастика, приключения
Продолжительность: 26 x ~ 00:50:30
Перевод: Авторский (одноголосый) Ghostface (серии 1 - 20)
Перевод: Авторский (одноголосый) Horror Maker (серии 21 - 26)
Режиссёр: Irwin Allen / Ирвин Аллен
В ролях:
Richard Basehart ... Adm. Harriman Nelson / ... (110 episodes, 1964-1968)
David Hedison ... Captain Crane / ... (110 episodes, 1964-1968)
Robert Dowdell ... Chip Morton / ... (109 episodes, 1964-1968)
Del Monroe ... Kowalski / ... (98 episodes, 1964-1968)
Terry Becker ... Chief Francis Ethelbert Sharkey / ... (71 episodes, 1965-1968)
Paul Trinka ... Patterson / ... (58 episodes, 1964-1968)
Arch Whiting ... Sparks (41 episodes, 1964-1968)
Richard Bull ... Doctor / ... (27 episodes, 1964-1968)
Henry Kulky ... Chief Curley Jones / ... (22 episodes, 1964-1965)
Marco López ... Crewman / ... (21 episodes, 1966-1968)
Allan Hunt ... Riley / ... (17 episodes, 1965-1966)
Patrick Culliton ... Crewman / ... (12 episodes, 1964-1968)
Derrik Lewis ... Lieutenant O'Brien / ... (8 episodes, 1964-1965)
Paul Carr ... Clark / ... (7 episodes, 1964-1967)
Mark Slade ... Malone / ... (5 episodes, 1964)
Описание: Сериал "Путешествие на дно моря" описывает приключения первой в мире частной атомной подводной лодки ПЛРД "Морской Глаз". Разработанная адмиралом Гарриманом Нельсоном, она предназначалась для океанографических экспедиций, проводимых нельсоновским Институтом морских исследований. Несмотря на множество эпизодов с "чудовищами", очень многие сюжетные линии были откликами на актуальные новости того времени: ядерный "судный день", загрязнение окружающей среды, угроза из-за рубежа, кража технологий - многие из которых не потеряли злободневности и сегодня.

Релиз

Список эпизодов:
s02e01 - Jonah and the Whale - Иона и кит (1965)
s02e02 - Time Bomb - Бомба замедленного действия (1965)
s02e03 - ...And Five of Us Are Left - И пятеро из нас осталось (1965)
s02e04 - The Cyborg - Киборг (1965)
s02e05 - Escape from Venice - Побег из Венеции (1965)
s02e06 - The Left-Handed Man - Левша (1965)
s02e07 - The Deadliest Game - Смертельная игра (1965)
s02e08 - Leviathan - Левиафан (1965)
s02e09 - The Peacemaker - Миротворец (1965)
s02e10 - The Silent Saboteurs - Тихие диверсанты (1965)
s02e11 - The X Factor - Икс Фактор (1965)
s02e12 - The Machines Strike Back - Машины наносят ответный удар (1965)
s02e13 - The Monster from Outer Space - Монстр из открытого космоса (1965)
s02e14 - Terror on Dinosaur Island - Ужас на острове динозавров (1965)
s02e15 - Killers of the Deep - Убийцы глубины (1965)
s02e16 - Deadly Creature Below! - Опасное подводное существо (1966)
s02e17 - The Phantom Strikes - Призрак нападает (1966)
s02e18 - The Sky's on Fire - Пылающие небеса (1966)
s02e19 - Graveyard of Fear - Кладбище страха (1966)
s02e20 - The Shape of Doom - Образ гибели (1966)
s02e21 - Dead Men's Doubloons - Дублоны мертвецов (1966)
s02e22 - The Death Ship - Корабль мертвецов (1966)
s02e23 - The Monster's Web - Сеть монстра (1966)
s02e24 - The Menfish - Человек-рыба (1966)
s02e25 - The Mechanical Man - Механический человек (1966)
s02e26 - The Return of the Phantom - Возвращение Призрака (1966)

Качество: DVDRip
Формат: MKV
Видео: x264, ~1580 кбит/с, 720x540, 25 к/с
Аудио 1: Русский АО (Ghostface) (AC3, 2 ch, 192 Кбит/с)
Аудио 2: Английский (AC3, 2 ch, 192 Кбит/с)
Субтитры : английские
Работа над релизом:
Релиз kosmoaelita
Рипы с ДВД с твваулта - kosmoaelita
Авторский перевод по заказу от kosmoaelita - Ghostface (e1-20)
Авторский перевод по заказу от kosmoaelita - Horror Maker (e21-)
Спонсоры русской озвучки:Starlay ,evilbuch



Пример русского перевода

Дополнительно

Формат изображения: 4:3
Изображение: цветное
Сатурн, 2007 год
Номинации (1):
Лучшее DVD-издание классического телесериала — «For Seasons 1 & 2»
Also Known As (AKA)
Brazil Viagem ao Fundo do Mar
Germany Die Seaview - In geheimer Mission
Spain Viaje al fondo del mar
Spain (Catalan title) Viatge al fons del mar
France Voyage au fond des mers
Italy Viaggio in fondo al mare
Mexico Viaje al fondo del mar
Venezuela Viaje al fondo del mar
West Germany Die Seaview - In geheimer Mission
West Germany Mission Seaview

Знаете ли вы, что...

Отзывы

Рецензия

MediaInfo

Общее
Уникальный идентификатор : 198092328077447438548046191364364556153 (0x950731D3E9864B93B4537B423773D779)
Полное имя : J:\Voyage to the Bottom of the Sea s02 1965-68 DVDRip kosmoaelita\V.B.Sea s02e02 Time Bomb 1965.x264.DVDRip.Rus.kosmoaelita.mkv
Формат : Matroska
Версия формата : Version 4
Размер файла : 694 Мбайт
Продолжительность : 49 м. 16 с.
Общий поток : 1968 Кбит/сек
Название фильма : Voyage to the Bottom of the Sea s02e02 Time Bomb - Бомба замедленного действия / 1965 / rip from PAL DVD9 by kosmoaelita (2019-12-22), crf=18.95
Дата кодирования : UTC 2020-03-01 00:43:13
Программа кодирования : mkvmerge v6.6.0 ('The Edge Of The In Between') built on Dec 1 2013 17:55:00
Библиотека кодирования : libebml v1.3.0 + libmatroska v1.4.1
Attachments : s02e02 Time Bomb 1965.mkv.encoding.log / Poster s2.jpg
Видео
Идентификатор : 1
Формат : AVC
Формат/Информация : Advanced Video Codec
Профиль формата : High@L4.1
Настройки формата : CABAC / 8 Ref Frames
Параметр CABAC формата : Да
Параметр RefFrames формата : 8 кадров
Идентификатор кодека : V_MPEG4/ISO/AVC
Продолжительность : 49 м. 16 с.
Битрейт : 1580 Кбит/сек
Ширина : 720 пикселей
Высота : 540 пикселей
Соотношение сторон : 4:3
Режим частоты кадров : Постоянный
Частота кадров : 25,000 кадров/сек
Цветовое пространство : YUV
Субдискретизация насыщенности : 4:2:0
Битовая глубина : 8 бит
Тип развёртки : Прогрессивная
Бит/(Пиксели*Кадры) : 0.163
Размер потока : 544 Мбайт (78%)
Заголовок : http://kosmoaelita.com/viewtopic.php?t=3057
Библиотека кодирования : x264 core 130 r2273 b3065e6
Настройки программы : cabac=1 / ref=8 / deblock=1:-3:-3 / analyse=0x3:0x131 / me=umh / subme=11 / psy=1 / psy_rd=0.99:0.14 / mixed_ref=1 / me_range=24 / chroma_me=1 / trellis=2 / 8x8dct=1 / cqm=0 / deadzone=21,11 / fast_pskip=1 / chroma_qp_offset=-3 / threads=6 / lookahead_threads=1 / sliced_threads=0 / nr=0 / decimate=1 / interlaced=0 / bluray_compat=0 / constrained_intra=0 / bframes=8 / b_pyramid=2 / b_adapt=2 / b_bias=0 / direct=3 / weightb=1 / open_gop=0 / weightp=2 / keyint=210 / keyint_min=21 / scenecut=40 / intra_refresh=0 / rc_lookahead=80 / rc=2pass / mbtree=1 / bitrate=1580 / ratetol=1.0 / qcomp=0.65 / qpmin=0 / qpmax=69 / qpstep=4 / cplxblur=20.0 / qblur=0.5 / ip_ratio=1.25 / aq=1:0.90
Default : Да
Forced : Нет
Цветовой диапазон : Limited
Основные цвета : BT.601 NTSC
Характеристики трансфера : BT.601
Коэффициенты матрицы : BT.601
Аудио #1
Идентификатор : 2
Формат : AC-3
Формат/Информация : Audio Coding 3
Коммерческое название : Dolby Digital
Идентификатор кодека : A_AC3
Продолжительность : 49 м. 16 с.
Вид битрейта : Постоянный
Битрейт : 192 Кбит/сек
Каналы : 2 канала
ChannelLayout : L R
Частота : 48,0 КГц
Частота кадров : 31,250 кадров/сек (1536 SPF)
Метод сжатия : С потерями
Размер потока : 67,7 Мбайт (10%)
Заголовок : Русский АО (GhostFace) для kosmoaelita.com
Язык : Russian
ServiceKind/String : Complete Main
Default : Да
Forced : Нет
Аудио #2
Идентификатор : 3
Формат : AC-3
Формат/Информация : Audio Coding 3
Коммерческое название : Dolby Digital
Идентификатор кодека : A_AC3
Продолжительность : 49 м. 16 с.
Вид битрейта : Постоянный
Битрейт : 192 Кбит/сек
Каналы : 2 канала
ChannelLayout : L R
Частота : 48,0 КГц
Частота кадров : 31,250 кадров/сек (1536 SPF)
Метод сжатия : С потерями
Размер потока : 67,7 Мбайт (10%)
Язык : English
ServiceKind/String : Complete Main
Default : Нет
Forced : Нет
Текст
Идентификатор : 4
Формат : VobSub
Режим смешивания : zlib
Идентификатор кодека : S_VOBSUB
Идентификатор кодека/Информация : Picture based subtitle format used on DVDs
Язык : English
Default : Да
Forced : Нет
Меню
00:02:44.360 : en:00:02:44.360
00:15:09.440 : en:00:15:09.440
00:24:09.840 : en:00:24:09.840
00:34:09.040 : en:00:34:09.040
00:48:21.640 : en:00:48:21.640
00:49:16.840 : en:00:49:16.840

Скриншоты








Скринлист



Last edited by kosmoaelita on 2020-09-27 22:26; edited 41 times in total
[Profile] [PM]

kosmoaelita ®

Gender: Male

Longevity: 8 years 5 months

Posts: 1729

Post 01-Mar-2020 03:51 (after 14 minutes)

[Quote]

Добавлены 1-2 серии
[Profile] [PM]

CROM@G

Gender: Male

Longevity: 5 years 5 months

Posts: 3584

Location: Прибалтика

Post 01-Mar-2020 04:33 (after 42 minutes)

[Quote]

Спасибо всем причастным
[Profile] [PM]

kosmoaelita ®

Gender: Male

Longevity: 8 years 5 months

Posts: 1729

Post 26-Sep-2020 15:18 (after 6 months 25 days)

[Quote]

Добавлена 21-я серия
[Profile] [PM]

kosmoaelita ®

Gender: Male

Longevity: 8 years 5 months

Posts: 1729

Post 27-Sep-2020 22:26 (after 1 day 7 hours)

[Quote]

Добавлены финальные пять серий второго сезона.
Всем спасибо!
[Profile] [PM]
Display posts:    
Reply to topic

Current time is: 25-Feb 08:43

All times are UTC + 3



You cannot post new topics in this forum
You cannot reply to topics in this forum
You cannot edit your posts in this forum
You cannot delete your posts in this forum
You cannot vote in polls in this forum
You cannot attach files in this forum
You cannot download files in this forum