Планета Марс / Planet Mars [Short] (Себастьян Кудер) [2019, США, научная фантастика WEB-DL-1080p] СТ (Mr.Faer), ЛО (Kortez)

Reply to topic
DL-List and Torrent activity
Size:  72 MB   |    Registered:  7 months 4 days   |    Completed:  0 times

Seeder not seen: 7 months 4 days

 
   
 
 
 
Author Message

Faer ®

Gender: Male

Longevity: 5 years 8 months

Posts: 456

Post 24-Feb-2020 19:07

[Quote]

Планета Марс / Planet Mars
Страна: США
Жанр: короткометражка, приключения, комедия, научная фантастика
Год выпуска: 2019
Продолжительность: 00:03:00
Перевод: ЛО Kortez по субтитрам от (Mr.Faer)
Cубтитры: русские, английские
Режиссер: Себастьян Кудер
В ролях: Katerina Zacharakis, Nichole Gonzalez
Описание:
На Марсе была жизнь, но люди уничтожили её, даже не заметив.
Качество видео: WEB-DL
Формат видео: MKV
Видео: AVC, 3840*1600, 2.4:1, 24fps, 4908 Кбит/с
Аудио 1: Opus, 48 КГц, 133 Кбит/с, стерео
Аудио 2: MP3, 48 КГц, 208 Кбит/с, стерео
Формат субтитров: softsub (SRT)

MediaInfo

Общее
Уникальный идентификатор : 249256786210162780654906878520010770606 (0xBB851C60092182AC8DF8312C2AA488AE)
Полное имя : Planet Mars [Short] 2019.x264.WEBDL.1080p.kosmoaelita.mkv
Формат : Matroska
Версия формата : Version 4
Размер файла : 71,7 Мбайт
Продолжительность : 2 м. 51 с.
Общий поток : 3513 Кбит/сек
Дата кодирования : UTC 2020-02-24 22:35:49
Программа кодирования : mkvmerge v6.6.0 ('The Edge Of The In Between') built on Dec 1 2013 17:55:00
Библиотека кодирования : libebml v1.3.0 + libmatroska v1.4.1
Видео
Идентификатор : 1
Формат : AVC
Формат/Информация : Advanced Video Codec
Профиль формата : High@L4.1
Настройки формата : CABAC / 5 Ref Frames
Параметр CABAC формата : Да
Параметр RefFrames формата : 5 кадров
Идентификатор кодека : V_MPEG4/ISO/AVC
Продолжительность : 2 м. 51 с.
Битрейт : 3000 Кбит/сек
Ширина : 1920 пикселей
Высота : 800 пикселей
Соотношение сторон : 2,40:1
Режим частоты кадров : Постоянный
Частота кадров : 24,000 кадра/сек
Цветовое пространство : YUV
Субдискретизация насыщенности : 4:2:0
Битовая глубина : 8 бит
Тип развёртки : Прогрессивная
Бит/(Пиксели*Кадры) : 0.081
Размер потока : 59,8 Мбайт (83%)
Заголовок : http://kosmoaelita.com/viewtopic.php?t=3054
Библиотека кодирования : x264 core 130 r2273 b3065e6
Настройки программы : cabac=1 / ref=5 / deblock=1:-2:-2 / analyse=0x3:0x131 / me=umh / subme=11 / psy=1 / psy_rd=0.99:0.14 / mixed_ref=1 / me_range=24 / chroma_me=1 / trellis=2 / 8x8dct=1 / cqm=0 / deadzone=21,11 / fast_pskip=1 / chroma_qp_offset=-3 / threads=6 / lookahead_threads=1 / sliced_threads=0 / nr=0 / decimate=1 / interlaced=0 / bluray_compat=0 / constrained_intra=0 / bframes=8 / b_pyramid=2 / b_adapt=2 / b_bias=0 / direct=3 / weightb=1 / open_gop=0 / weightp=2 / keyint=210 / keyint_min=21 / scenecut=40 / intra_refresh=0 / rc_lookahead=80 / rc=2pass / mbtree=1 / bitrate=3000 / ratetol=1.0 / qcomp=0.65 / qpmin=0 / qpmax=69 / qpstep=4 / cplxblur=20.0 / qblur=0.5 / ip_ratio=1.25 / aq=1:0.90
Default : Да
Forced : Нет
Цветовой диапазон : Limited
Основные цвета : BT.709
Характеристики трансфера : BT.709
Коэффициенты матрицы : BT.709
Аудио #1
Идентификатор : 2
Формат : AC-3
Формат/Информация : Audio Coding 3
Коммерческое название : Dolby Digital
Идентификатор кодека : A_AC3
Продолжительность : 2 м. 51 с.
Вид битрейта : Постоянный
Битрейт : 256 Кбит/сек
Каналы : 2 канала
ChannelLayout : L R
Частота : 48,0 КГц
Частота кадров : 31,250 кадров/сек (1536 SPF)
Метод сжатия : С потерями
Размер потока : 5,22 Мбайт (7%)
Заголовок : Русский ЛО (Kortez) - для kosmoaelita
Язык : Russian
ServiceKind/String : Complete Main
Default : Да
Forced : Нет
Аудио #2
Идентификатор : 3
Формат : AC-3
Формат/Информация : Audio Coding 3
Коммерческое название : Dolby Digital
Идентификатор кодека : A_AC3
Продолжительность : 2 м. 51 с.
Вид битрейта : Постоянный
Битрейт : 256 Кбит/сек
Каналы : 2 канала
ChannelLayout : L R
Частота : 48,0 КГц
Частота кадров : 31,250 кадров/сек (1536 SPF)
Метод сжатия : С потерями
Размер потока : 5,22 Мбайт (7%)
Язык : English
ServiceKind/String : Complete Main
Default : Нет
Forced : Нет
Текст #1
Идентификатор : 4
Формат : UTF-8
Идентификатор кодека : S_TEXT/UTF8
Идентификатор кодека/Информация : UTF-8 Plain Text
Заголовок : Русский (Mr.Faer) .srt
Язык : Russian
Default : Да
Forced : Нет
Текст #2
Идентификатор : 5
Формат : PGS
Режим смешивания : zlib
Идентификатор кодека : S_HDMV/PGS
Идентификатор кодека/Информация : Picture based subtitle format used on BDs/HD-DVDs
Заголовок : Русский (Mr.Faer) .PGS
Язык : Russian
Default : Нет
Forced : Нет

Скриншоты




Файл дополнительно залит на ОБЛАКО cd Рип v2 cd2
Planet Mars [Short] 2019.x264.WEBDL.1080p.kosmoaelita.mkv.torrent
Torrent: Registered [ 2020-02-25 01:43 ]

Download .torrent

Download

2 KB

Status: checked
Completed: 0 times
Size: 72 MB
 


Last edited by Faer on 2020-02-25 09:43; edited 2 times in total
[Profile] [PM]

kosmoaelita

Gender: Male

Longevity: 8 years

Posts: 1651

Post 25-Feb-2020 01:44 (after 6 hours)

[Quote]

Английских сабов нет
Кодек Opus практически ничем не читается
[Profile] [PM]

Faer ®

Gender: Male

Longevity: 5 years 8 months

Posts: 456

Post 25-Feb-2020 09:42 (after 7 hours)

[Quote]

26626Английских сабов нет
Кодек Opus практически ничем не читается
Добавил альтернативную версию (сабы есть, звук AAC 128 кб/с).
[Profile] [PM]
Display posts:    
Reply to topic

Current time is: 29-Sep 16:19

All times are UTC + 3



You can post new topics in this forum
You cannot reply to topics in this forum
You cannot edit your posts in this forum
You cannot delete your posts in this forum
You cannot vote in polls in this forum
You cannot attach files in this forum
You can download files in this forum